Rapsody-Music

Объявление

Информация о пользователе

Привет, Гость! Войдите или зарегистрируйтесь.


Вы здесь » Rapsody-Music » Eurodance, Boy Bands » Colonia


Colonia

Сообщений 1 страница 7 из 7

1


Colonia / Super Collection (FLAC+mp3)



Слиль: Eurodance, Europop, Dance | Охваченные годы творчества: 1997-2013 | Страна: Croatia


WIKIPEDIA DISCOGS  Official Website

Скрытый текст:

Для просмотра скрытого текста - войдите или зарегистрируйтесь.

Как скачать - инструкция

FLAC (tracks+cue) Log 100% (Источник: what.cd)

1997 - Vatra i Led (Огонь и лёд) [Crno Bijeli Svijet – CD 145]

http://i54.fastpic.ru/big/2013/0211/5a/65b6d8f306cad917e4b919b101b1e35a.jpeg

Трэклист::

01. Vatra i led (04:16)
02. Dio nje (03:38)
03. Suze sa zvijezda (05:04)
04. Sve oko mene je grijeh (04:52)
05. Dok spava grad (04:24)
06. Nek' vatre gore sve (03:48)
07. Slijepi putnik (03:57)
08. Mačka (03:27)
09. Ljubavi mi treba (04:17)
10. Novi ratovi (05:35)
11. Red light zone (04:11)
12. Red light zone (heavy mix) (04:09)
13. Božićna noć (bonus track) (03:57)

Лог создания рипа

Exact Audio Copy V0.99 prebeta 5 from 4. May 2009

EAC extraction logfile from 17. May 2010, 22:38

Colonia / Vatra I Led

Used drive  : PIONEER DVD-RW  DVR-112D   Adapter: 4  ID: 0

Read mode               : Secure
Utilize accurate stream : Yes
Defeat audio cache      : Yes
Make use of C2 pointers : No

Read offset correction                      : 48
Overread into Lead-In and Lead-Out          : No
Fill up missing offset samples with silence : Yes
Delete leading and trailing silent blocks   : No
Null samples used in CRC calculations       : Yes
Used interface                              : Native Win32 interface for Win NT & 2000
Gap handling                                : Appended to previous track

Used output format              : User Defined Encoder
Selected bitrate                : 768 kBit/s
Quality                         : High
Add ID3 tag                     : No
Command line compressor         : C:\Program Files\FLAC\flac.exe
Additional command line options : -V -8 -T "artist=%a" -T "title=%t" -T "album=%g" -T "date=%y" -T "tracknumber=%n" -T "genre=%m" %s

TOC of the extracted CD

     Track |   Start  |  Length  | Start sector | End sector
    ---------------------------------------------------------
        1  |  0:00.00 |  4:16.10 |         0    |    19209
        2  |  4:16.10 |  3:38.60 |     19210    |    35619
        3  |  7:54.70 |  5:04.27 |     35620    |    58446
        4  | 12:59.22 |  4:52.20 |     58447    |    80366
        5  | 17:51.42 |  4:24.38 |     80367    |   100204
        6  | 22:16.05 |  3:48.30 |    100205    |   117334
        7  | 26:04.35 |  3:57.52 |    117335    |   135161
        8  | 30:02.12 |  3:27.65 |    135162    |   150751
        9  | 33:30.02 |  4:17.48 |    150752    |   170074
       10  | 37:47.50 |  5:35.45 |    170075    |   195244
       11  | 43:23.20 |  4:11.07 |    195245    |   214076
       12  | 47:34.27 |  4:09.38 |    214077    |   232789
       13  | 51:43.65 |  3:57.67 |    232790    |   250631

Track  1

     Filename D:\Jinglovi\Colonia\Vatra I Led\01. Vatra I Led.wav

     Pre-gap length  0:00:02.00

     Peak level 100.0 %
     Track quality 100.0 %
     Test CRC 87606DC9
     Copy CRC 87606DC9
     Accurately ripped (confidence 2)  [0ED6FF0A]
     Copy OK

Track  2

     Filename D:\Jinglovi\Colonia\Vatra I Led\02. Dio Nje.wav

     Pre-gap length  0:00:04.04

     Peak level 94.4 %
     Track quality 99.9 %
     Test CRC E22100AF
     Copy CRC E22100AF
     Accurately ripped (confidence 2)  [2472A3EA]
     Copy OK

Track  3

     Filename D:\Jinglovi\Colonia\Vatra I Led\03. Suze Sa Zvijezda.wav

     Pre-gap length  0:00:03.66

     Peak level 98.8 %
     Track quality 100.0 %
     Test CRC 4AE773DC
     Copy CRC 4AE773DC
     Accurately ripped (confidence 2)  [4E773049]
     Copy OK

Track  4

     Filename D:\Jinglovi\Colonia\Vatra I Led\04. Sve Oko Mene Je Grijeh.wav

     Pre-gap length  0:00:04.09

     Peak level 98.8 %
     Track quality 100.0 %
     Test CRC 681ECE4C
     Copy CRC 681ECE4C
     Accurately ripped (confidence 2)  [2721E044]
     Copy OK

Track  5

     Filename D:\Jinglovi\Colonia\Vatra I Led\05. Dok Spava Grad.wav

     Pre-gap length  0:00:03.86

     Peak level 98.8 %
     Track quality 100.0 %
     Test CRC 74A82184
     Copy CRC 74A82184
     Accurately ripped (confidence 2)  [1E45D14B]
     Copy OK

Track  6

     Filename D:\Jinglovi\Colonia\Vatra I Led\06. Nek' Vatre Gore Sve.wav

     Pre-gap length  0:00:03.57

     Peak level 98.8 %
     Track quality 100.0 %
     Test CRC 928DDEF6
     Copy CRC 928DDEF6
     Accurately ripped (confidence 2)  [3CF65FC0]
     Copy OK

Track  7

     Filename D:\Jinglovi\Colonia\Vatra I Led\07. Slijepi Putnik.wav

     Pre-gap length  0:00:03.84

     Peak level 98.8 %
     Track quality 100.0 %
     Test CRC 0DFF7DE9
     Copy CRC 0DFF7DE9
     Accurately ripped (confidence 2)  [5FB031A0]
     Copy OK

Track  8

     Filename D:\Jinglovi\Colonia\Vatra I Led\08. Macka.wav

     Pre-gap length  0:00:03.22

     Peak level 98.8 %
     Track quality 99.9 %
     Test CRC 01CD94AA
     Copy CRC 01CD94AA
     Accurately ripped (confidence 2)  [FF320734]
     Copy OK

Track  9

     Filename D:\Jinglovi\Colonia\Vatra I Led\09. Ljubavi Mi Treba.wav

     Pre-gap length  0:00:03.29

     Peak level 98.8 %
     Track quality 100.0 %
     Test CRC C7996260
     Copy CRC C7996260
     Accurately ripped (confidence 2)  [FCEA9580]
     Copy OK

Track 10

     Filename D:\Jinglovi\Colonia\Vatra I Led\10. Novi Ratovi.wav

     Pre-gap length  0:00:02.90

     Peak level 98.8 %
     Track quality 100.0 %
     Test CRC 42A29E26
     Copy CRC 42A29E26
     Accurately ripped (confidence 2)  [547C98E2]
     Copy OK

Track 11

     Filename D:\Jinglovi\Colonia\Vatra I Led\11. Red Light Zone.wav

     Pre-gap length  0:00:02.37

     Peak level 100.0 %
     Track quality 100.0 %
     Test CRC 72300134
     Copy CRC 72300134
     Accurately ripped (confidence 2)  [FDEF21E0]
     Copy OK

Track 12

     Filename D:\Jinglovi\Colonia\Vatra I Led\12. Red Light Zone (Heavy Mix).wav

     Pre-gap length  0:00:04.66

     Peak level 100.0 %
     Track quality 100.0 %
     Test CRC B0680D7F
     Copy CRC B0680D7F
     Accurately ripped (confidence 2)  [A4124697]
     Copy OK

Track 13

     Filename D:\Jinglovi\Colonia\Vatra I Led\13. Bozicna Noc.wav

     Pre-gap length  0:00:03.13

     Peak level 98.8 %
     Track quality 100.0 %
     Test CRC 15090EE1
     Copy CRC 15090EE1
     Accurately ripped (confidence 2)  [1BE6F31B]
     Copy OK

All tracks accurately ripped

No errors occurred

End of status report

1999 - Ritam ljubavi (Ритм любви) [Croatia Records – CD 5254515]

http://i52.fastpic.ru/big/2013/0211/7b/e0acf250fedeb31d0584a11eebd1a97b.jpg

Трэклист::

01. Dok je tebe i ljubavi (03:09)
02. Ti (03:18)
03. Korak do sna (03:55)
04. Nebo iznad nas (04:07)
05. Lady Blue (03:41)
06. Kiša (03:53)
07. Primadona (03:29)
08. Njeno ime ne zovi u snu (03:59)
09. U ritmu ljubavi (02:50)
10. The cyberfunk (02:55)
11. Ti (Dee Jay Time club remix) (03:43)
12. Dok je tebe i ljubavi (eurobeat remix) (03:21)
13. Sve oko mene je grijeh (Neno DJ remix) (06:33)
14. Megamix by Dee Jay Time (05:12)

Лог создания рипа

Exact Audio Copy V0.99 prebeta 5 from 4. May 2009

EAC extraction logfile from 17. May 2010, 22:05

Colonia / Ritam Ljubavi

Used drive  : PIONEER DVD-RW  DVR-112D   Adapter: 4  ID: 0

Read mode               : Secure
Utilize accurate stream : Yes
Defeat audio cache      : Yes
Make use of C2 pointers : No

Read offset correction                      : 48
Overread into Lead-In and Lead-Out          : No
Fill up missing offset samples with silence : Yes
Delete leading and trailing silent blocks   : No
Null samples used in CRC calculations       : Yes
Used interface                              : Native Win32 interface for Win NT & 2000
Gap handling                                : Appended to previous track

Used output format              : User Defined Encoder
Selected bitrate                : 768 kBit/s
Quality                         : High
Add ID3 tag                     : No
Command line compressor         : C:\Program Files\FLAC\flac.exe
Additional command line options : -V -8 -T "artist=%a" -T "title=%t" -T "album=%g" -T "date=%y" -T "tracknumber=%n" -T "genre=%m" %s

TOC of the extracted CD

     Track |   Start  |  Length  | Start sector | End sector
    ---------------------------------------------------------
        1  |  0:00.00 |  3:09.21 |         0    |    14195
        2  |  3:09.21 |  3:18.03 |     14196    |    29048
        3  |  6:27.24 |  3:55.57 |     29049    |    46730
        4  | 10:23.06 |  4:07.19 |     46731    |    65274
        5  | 14:30.25 |  3:41.64 |     65275    |    81913
        6  | 18:12.14 |  3:53.01 |     81914    |    99389
        7  | 22:05.15 |  3:29.61 |     99390    |   115125
        8  | 25:35.01 |  3:59.11 |    115126    |   133061
        9  | 29:34.12 |  2:50.72 |    133062    |   145883
       10  | 32:25.09 |  2:55.07 |    145884    |   159015
       11  | 35:20.16 |  3:43.15 |    159016    |   175755
       12  | 39:03.31 |  3:21.42 |    175756    |   190872
       13  | 42:24.73 |  6:33.51 |    190873    |   220398
       14  | 48:58.49 |  5:12.48 |    220399    |   243846

Track  1

     Filename D:\Jinglovi\Colonia\Ritam Ljubavi\01. Dok Je Tebe I Ljubavi.wav

     Pre-gap length  0:00:02.00

     Peak level 95.5 %
     Track quality 99.9 %
     Test CRC 7F748BBE
     Copy CRC 7F748BBE
     Accurately ripped (confidence 1)  [7BC340E6]
     Copy OK

Track  2

     Filename D:\Jinglovi\Colonia\Ritam Ljubavi\02. Ti.wav

     Pre-gap length  0:00:01.73

     Peak level 95.5 %
     Track quality 100.0 %
     Test CRC B36A842C
     Copy CRC B36A842C
     Accurately ripped (confidence 1)  [48C0FFAB]
     Copy OK

Track  3

     Filename D:\Jinglovi\Colonia\Ritam Ljubavi\03. Korak Do Sna.wav

     Pre-gap length  0:00:01.73

     Peak level 95.5 %
     Track quality 99.9 %
     Test CRC FA6B4B96
     Copy CRC FA6B4B96
     Accurately ripped (confidence 1)  [7268A323]
     Copy OK

Track  4

     Filename D:\Jinglovi\Colonia\Ritam Ljubavi\04. Nebo Iznad Nas.wav

     Pre-gap length  0:00:01.73

     Peak level 95.4 %
     Track quality 100.0 %
     Test CRC CF65A1D7
     Copy CRC CF65A1D7
     Accurately ripped (confidence 1)  [EC80E58E]
     Copy OK

Track  5

     Filename D:\Jinglovi\Colonia\Ritam Ljubavi\05. Lady Blue.wav

     Pre-gap length  0:00:01.73

     Peak level 95.5 %
     Track quality 100.0 %
     Test CRC D7C9931D
     Copy CRC D7C9931D
     Accurately ripped (confidence 1)  [7EF3214D]
     Copy OK

Track  6

     Filename D:\Jinglovi\Colonia\Ritam Ljubavi\06. Kisa.wav

     Pre-gap length  0:00:01.73

     Peak level 95.5 %
     Track quality 100.0 %
     Test CRC A96E7F92
     Copy CRC A96E7F92
     Accurately ripped (confidence 1)  [E1C59232]
     Copy OK

Track  7

     Filename D:\Jinglovi\Colonia\Ritam Ljubavi\07. Primadona.wav

     Pre-gap length  0:00:01.73

     Peak level 95.5 %
     Track quality 100.0 %
     Test CRC 29CA9C4A
     Copy CRC 29CA9C4A
     Accurately ripped (confidence 1)  [3D400AB3]
     Copy OK

Track  8

     Filename D:\Jinglovi\Colonia\Ritam Ljubavi\08. Njeno Ime Ne Zovi U Snu.wav

     Pre-gap length  0:00:01.73

     Peak level 95.5 %
     Track quality 100.0 %
     Test CRC 2AD6CA44
     Copy CRC 2AD6CA44
     Accurately ripped (confidence 1)  [0AEBDFE0]
     Copy OK

Track  9

     Filename D:\Jinglovi\Colonia\Ritam Ljubavi\09. U Ritmu Ljubavi.wav

     Pre-gap length  0:00:01.73

     Peak level 95.5 %
     Track quality 100.0 %
     Test CRC 3BB5CFC4
     Copy CRC 3BB5CFC4
     Accurately ripped (confidence 1)  [CEF03743]
     Copy OK

Track 10

     Filename D:\Jinglovi\Colonia\Ritam Ljubavi\10. The Cyberfunk.wav

     Pre-gap length  0:00:01.73

     Peak level 95.5 %
     Track quality 99.9 %
     Test CRC 68A5A3FC
     Copy CRC 68A5A3FC
     Accurately ripped (confidence 1)  [87CA3FAD]
     Copy OK

Track 11

     Filename D:\Jinglovi\Colonia\Ritam Ljubavi\11. Ti (Dee Jay Time Club Remix).wav

     Pre-gap length  0:00:01.73

     Peak level 95.5 %
     Track quality 100.0 %
     Test CRC 0DFB7305
     Copy CRC 0DFB7305
     Accurately ripped (confidence 1)  [81E437DB]
     Copy OK

Track 12

     Filename D:\Jinglovi\Colonia\Ritam Ljubavi\12. Dok Je Tebe I Ljubavi (Eurobeat Remix).wav

     Pre-gap length  0:00:01.73

     Peak level 95.5 %
     Track quality 99.9 %
     Test CRC 10F20669
     Copy CRC 10F20669
     Accurately ripped (confidence 1)  [73CD9BC0]
     Copy OK

Track 13

     Filename D:\Jinglovi\Colonia\Ritam Ljubavi\13. Sve Oko Mene Je Grijeh (Neno DJ Remix).wav

     Pre-gap length  0:00:01.73

     Peak level 96.6 %
     Track quality 100.0 %
     Test CRC 6325BA0E
     Copy CRC 6325BA0E
     Accurately ripped (confidence 1)  [1EA330E4]
     Copy OK

Track 14

     Filename D:\Jinglovi\Colonia\Ritam Ljubavi\14. Megamix by Dee Jay Time.wav

     Pre-gap length  0:00:01.73

     Peak level 95.5 %
     Track quality 100.0 %
     Test CRC C3169D5A
     Copy CRC C3169D5A
     Accurately ripped (confidence 1)  [0142ECBC]
     Copy OK

All tracks accurately ripped

No errors occurred

End of status report

2000 - Jača nego ikad (Сильнее, чем прежде)

http://i53.fastpic.ru/big/2013/0210/6e/ec8ac02ee8ca9b47687d140533a3e76e.jpg

Трэклист::

01. Sexy body (03:33)
02. Budi mi zbogom (04:09)
03. 1001 noć (04:20)
04. Deja vu (03:38)
05. Bolja vremena (03:00)
06. Jača nego ikada (04:31)
07. Ti da bu di bu da (03:39)
08. Zrno istine (03:14)
09. Ti i ja (03:21)
10. Od tvojih osmijeha (04:18)
11. Laku noć (03:32)
12. Ljubav ne stanuje tu (03:46)
13. Dok je tebe i ljubavi (video 2000 mix) (03:22)

Лог создания рипа

Exact Audio Copy V0.99 prebeta 5 from 4. May 2009

EAC extraction logfile from 18. May 2010, 16:27

Colonia / Jaca Nego Ikad

Used drive  : PIONEER DVD-RW  DVR-112D   Adapter: 4  ID: 0

Read mode               : Secure
Utilize accurate stream : Yes
Defeat audio cache      : Yes
Make use of C2 pointers : No

Read offset correction                      : 48
Overread into Lead-In and Lead-Out          : No
Fill up missing offset samples with silence : Yes
Delete leading and trailing silent blocks   : No
Null samples used in CRC calculations       : Yes
Used interface                              : Native Win32 interface for Win NT & 2000
Gap handling                                : Appended to previous track

Used output format              : User Defined Encoder
Selected bitrate                : 768 kBit/s
Quality                         : High
Add ID3 tag                     : No
Command line compressor         : C:\Program Files\FLAC\flac.exe
Additional command line options : -V -8 -T "artist=%a" -T "title=%t" -T "album=%g" -T "date=%y" -T "tracknumber=%n" -T "genre=%m" %s

TOC of the extracted CD

     Track |   Start  |  Length  | Start sector | End sector
    ---------------------------------------------------------
        1  |  0:00.00 |  3:33.61 |         0    |    16035
        2  |  3:33.61 |  4:09.16 |     16036    |    34726
        3  |  7:43.02 |  4:20.53 |     34727    |    54279
        4  | 12:03.55 |  3:38.69 |     54280    |    70698
        5  | 15:42.49 |  3:00.14 |     70699    |    84212
        6  | 18:42.63 |  4:31.39 |     84213    |   104576
        7  | 23:14.27 |  3:39.55 |    104577    |   121056
        8  | 26:54.07 |  3:14.38 |    121057    |   135644
        9  | 30:08.45 |  3:21.36 |    135645    |   150755
       10  | 33:30.06 |  4:18.52 |    150756    |   170157
       11  | 37:48.58 |  3:32.35 |    170158    |   186092
       12  | 41:21.18 |  3:46.40 |    186093    |   203082
       13  | 45:07.58 |  3:22.61 |    203083    |   218293

Track  1

     Filename D:\Jinglovi\Colonia\Jaca Nego Ikad\01. Sexy Body.wav

     Pre-gap length  0:00:02.00

     Peak level 100.0 %
     Track quality 100.0 %
     Test CRC CDB56133
     Copy CRC CDB56133
     Accurately ripped (confidence 2)  [4FA7334F]
     Copy OK

Track  2

     Filename D:\Jinglovi\Colonia\Jaca Nego Ikad\02. Budi Mi Zbogom.wav

     Pre-gap length  0:00:02.00

     Peak level 100.0 %
     Track quality 100.0 %
     Test CRC 91ABCF51
     Copy CRC 91ABCF51
     Accurately ripped (confidence 2)  [97CD358A]
     Copy OK

Track  3

     Filename D:\Jinglovi\Colonia\Jaca Nego Ikad\03. 1001 Noc.wav

     Pre-gap length  0:00:02.00

     Peak level 100.0 %
     Track quality 100.0 %
     Test CRC 359F9F88
     Copy CRC 359F9F88
     Accurately ripped (confidence 2)  [A9691BD6]
     Copy OK

Track  4

     Filename D:\Jinglovi\Colonia\Jaca Nego Ikad\04. Deja Vu.wav

     Pre-gap length  0:00:02.00

     Peak level 100.0 %
     Track quality 100.0 %
     Test CRC 748E2054
     Copy CRC 748E2054
     Accurately ripped (confidence 2)  [04B3D29A]
     Copy OK

Track  5

     Filename D:\Jinglovi\Colonia\Jaca Nego Ikad\05. Bolja Vremena.wav

     Pre-gap length  0:00:02.00

     Peak level 100.0 %
     Track quality 100.0 %
     Test CRC 6544B794
     Copy CRC 6544B794
     Accurately ripped (confidence 2)  [F9F3948F]
     Copy OK

Track  6

     Filename D:\Jinglovi\Colonia\Jaca Nego Ikad\06. Jaca Nego Ikad.wav

     Pre-gap length  0:00:02.00

     Peak level 100.0 %
     Track quality 100.0 %
     Test CRC 799D100F
     Copy CRC 799D100F
     Accurately ripped (confidence 2)  [DAA356B0]
     Copy OK

Track  7

     Filename D:\Jinglovi\Colonia\Jaca Nego Ikad\07. Ti Da Bu Di Bu Da.wav

     Pre-gap length  0:00:02.00

     Peak level 100.0 %
     Track quality 100.0 %
     Test CRC 68CECEA7
     Copy CRC 68CECEA7
     Accurately ripped (confidence 2)  [3BDA2399]
     Copy OK

Track  8

     Filename D:\Jinglovi\Colonia\Jaca Nego Ikad\08. Zrno Istine.wav

     Pre-gap length  0:00:02.00

     Peak level 100.0 %
     Track quality 100.0 %
     Test CRC CC390C43
     Copy CRC CC390C43
     Accurately ripped (confidence 2)  [9E594750]
     Copy OK

Track  9

     Filename D:\Jinglovi\Colonia\Jaca Nego Ikad\09. Ti I Ja.wav

     Pre-gap length  0:00:02.00

     Peak level 100.0 %
     Track quality 100.0 %
     Test CRC CC3E80E1
     Copy CRC CC3E80E1
     Accurately ripped (confidence 2)  [D4774AA9]
     Copy OK

Track 10

     Filename D:\Jinglovi\Colonia\Jaca Nego Ikad\10. Od Tvojih Osmijeha.wav

     Pre-gap length  0:00:02.00

     Peak level 98.8 %
     Track quality 100.0 %
     Test CRC FF9D73B8
     Copy CRC FF9D73B8
     Accurately ripped (confidence 2)  [4A8EA191]
     Copy OK

Track 11

     Filename D:\Jinglovi\Colonia\Jaca Nego Ikad\11. Laku Noc.wav

     Pre-gap length  0:00:02.00

     Peak level 100.0 %
     Track quality 100.0 %
     Test CRC 30055B52
     Copy CRC 30055B52
     Accurately ripped (confidence 2)  [FFD56274]
     Copy OK

Track 12

     Filename D:\Jinglovi\Colonia\Jaca Nego Ikad\12. Ljubav Ne Stanuje Tu.wav

     Pre-gap length  0:00:02.00

     Peak level 100.0 %
     Track quality 100.0 %
     Test CRC B51802EE
     Copy CRC B51802EE
     Accurately ripped (confidence 2)  [D564E8AD]
     Copy OK

Track 13

     Filename D:\Jinglovi\Colonia\Jaca Nego Ikad\13. Dok Ja Tebe I Ljubavi (Video 2000 Mix).wav

     Pre-gap length  0:00:02.00

     Peak level 100.0 %
     Track quality 100.0 %
     Test CRC DC8E86DB
     Copy CRC DC8E86DB
     Accurately ripped (confidence 2)  [B350C0BC]
     Copy OK

All tracks accurately ripped

No errors occurred

End of status report

2001 - Milijun milja od nigdje (Миллион миль от ниоткуда) [Croatia Records – CD 5433545]

http://i51.fastpic.ru/big/2013/0210/80/43877b262f12674974f587f58a975a80.jpeg

Трэклист::

01. Za tvoje snene oči (feat. Neno DJ) (04:38)
02. Svijet voli pobjednike (04:04)
03. Nikad više (duet with Jacques) (04:11)
04. Rendezvous (04:11)
05. Takvi kao ti (04:21)
06. No puedo mas sin ti (03:53)
07. Samo tvoja (03:02)
08. Sjene (05:31)
09. Prvi i zadnji (04:00)
10. Nevjera (04:29)
11. Još jednom za kraj (05:25)
12. Kiša, vjetar, oluja (03:28)
13. Milijun milja od nigdje (04:21)

Лог создания рипа

Exact Audio Copy V0.99 prebeta 5 from 4. May 2009

EAC extraction logfile from 10. November 2010, 20:00

Colonia / Milijun milja od nigdje

Used drive  : ATAPI   DVD A  DH20A3P   Adapter: 2  ID: 1

Read mode               : Secure
Utilize accurate stream : Yes
Defeat audio cache      : Yes
Make use of C2 pointers : No

Read offset correction                      : 6
Overread into Lead-In and Lead-Out          : No
Fill up missing offset samples with silence : Yes
Delete leading and trailing silent blocks   : No
Null samples used in CRC calculations       : Yes
Used interface                              : Native Win32 interface for Win NT & 2000
Gap handling                                : Appended to previous track

Used output format              : User Defined Encoder
Selected bitrate                : 32 kBit/s
Quality                         : High
Add ID3 tag                     : No
Command line compressor         : C:\Program Files (x86)\Exact Audio Copy\Flac\flac.exe
Additional command line options : -V -8 -T "artist=%a" -T "title=%t" -T "album=%g" -T "date=%y" -T "tracknumber=%n" -T "genre=%m" %s

TOC of the extracted CD

     Track |   Start  |  Length  | Start sector | End sector
    ---------------------------------------------------------
        1  |  0:00.00 |  4:38.41 |         0    |    20890
        2  |  4:38.41 |  4:04.70 |     20891    |    39260
        3  |  8:43.36 |  4:11.67 |     39261    |    58152
        4  | 12:55.28 |  4:11.53 |     58153    |    77030
        5  | 17:07.06 |  4:21.51 |     77031    |    96656
        6  | 21:28.57 |  3:53.74 |     96657    |   114205
        7  | 25:22.56 |  3:02.03 |    114206    |   127858
        8  | 28:24.59 |  5:31.62 |    127859    |   152745
        9  | 33:56.46 |  4:00.14 |    152746    |   170759
       10  | 37:56.60 |  4:29.47 |    170760    |   190981
       11  | 42:26.32 |  5:25.36 |    190982    |   215392
       12  | 47:51.68 |  3:28.05 |    215393    |   230997
       13  | 51:19.73 |  4:21.67 |    230998    |   250639

Track  1

     Filename E:\Rips\EAC\Colonia - 2001 - Milijun milja od nigdje\01 - Za tvoje snene oиi (feat. Neno DJ).wav

     Pre-gap length  0:00:02.00

     Peak level 99.9 %
     Track quality 100.0 %
     Test CRC 6EA9AAC4
     Copy CRC 6EA9AAC4
     Accurately ripped (confidence 3)  [BDB420C7]
     Copy OK

Track  2

     Filename E:\Rips\EAC\Colonia - 2001 - Milijun milja od nigdje\02 - Svijet voli pobjednike.wav

     Pre-gap length  0:00:02.00

     Peak level 99.9 %
     Track quality 100.0 %
     Test CRC 00465A07
     Copy CRC 00465A07
     Accurately ripped (confidence 3)  [FC35AD25]
     Copy OK

Track  3

     Filename E:\Rips\EAC\Colonia - 2001 - Milijun milja od nigdje\03 - Nikad viљe (duet with Jacques).wav

     Pre-gap length  0:00:02.00

     Peak level 99.9 %
     Track quality 100.0 %
     Test CRC 6FA7BB1B
     Copy CRC 6FA7BB1B
     Accurately ripped (confidence 3)  [75C007B9]
     Copy OK

Track  4

     Filename E:\Rips\EAC\Colonia - 2001 - Milijun milja od nigdje\04 - Rendezvous.wav

     Pre-gap length  0:00:02.00

     Peak level 99.9 %
     Track quality 99.9 %
     Test CRC 1BB39283
     Copy CRC 1BB39283
     Accurately ripped (confidence 3)  [60C19078]
     Copy OK

Track  5

     Filename E:\Rips\EAC\Colonia - 2001 - Milijun milja od nigdje\05 - Takvi kao ti.wav

     Pre-gap length  0:00:02.00

     Peak level 99.9 %
     Track quality 99.9 %
     Test CRC 241379E3
     Copy CRC 241379E3
     Accurately ripped (confidence 3)  [CDEE6C8A]
     Copy OK

Track  6

     Filename E:\Rips\EAC\Colonia - 2001 - Milijun milja od nigdje\06 - No puedo mas sin ti.wav

     Pre-gap length  0:00:02.00

     Peak level 99.9 %
     Track quality 100.0 %
     Test CRC 45D4BAF2
     Copy CRC 45D4BAF2
     Accurately ripped (confidence 3)  [2B1E3BB3]
     Copy OK

Track  7

     Filename E:\Rips\EAC\Colonia - 2001 - Milijun milja od nigdje\07 - Samo tvoja.wav

     Pre-gap length  0:00:02.00

     Peak level 99.9 %
     Track quality 100.0 %
     Test CRC 5B39070E
     Copy CRC 5B39070E
     Accurately ripped (confidence 3)  [498D9595]
     Copy OK

Track  8

     Filename E:\Rips\EAC\Colonia - 2001 - Milijun milja od nigdje\08 - Sjene.wav

     Pre-gap length  0:00:02.00

     Peak level 99.9 %
     Track quality 100.0 %
     Test CRC B916B1C3
     Copy CRC B916B1C3
     Accurately ripped (confidence 3)  [91D41BD9]
     Copy OK

Track  9

     Filename E:\Rips\EAC\Colonia - 2001 - Milijun milja od nigdje\09 - Prvi i zadnji.wav

     Pre-gap length  0:00:02.00

     Peak level 99.9 %
     Track quality 100.0 %
     Test CRC 67303630
     Copy CRC 67303630
     Accurately ripped (confidence 3)  [A98ED432]
     Copy OK

Track 10

     Filename E:\Rips\EAC\Colonia - 2001 - Milijun milja od nigdje\10 - Nevjera.wav

     Pre-gap length  0:00:02.00

     Peak level 99.9 %
     Track quality 99.9 %
     Test CRC 3052FB8C
     Copy CRC 3052FB8C
     Accurately ripped (confidence 3)  [E9C34DDB]
     Copy OK

Track 11

     Filename E:\Rips\EAC\Colonia - 2001 - Milijun milja od nigdje\11 - Joљ jednom za kraj.wav

     Pre-gap length  0:00:02.00

     Peak level 99.9 %
     Track quality 100.0 %
     Test CRC B240E865
     Copy CRC B240E865
     Accurately ripped (confidence 3)  [DF452DE9]
     Copy OK

Track 12

     Filename E:\Rips\EAC\Colonia - 2001 - Milijun milja od nigdje\12 - Kiљa, vjetar, oluja.wav

     Pre-gap length  0:00:02.00

     Peak level 99.9 %
     Track quality 100.0 %
     Test CRC 36EC3924
     Copy CRC 36EC3924
     Accurately ripped (confidence 3)  [A916CE7F]
     Copy OK

Track 13

     Filename E:\Rips\EAC\Colonia - 2001 - Milijun milja od nigdje\13 - Milijun milja od nigdje.wav

     Pre-gap length  0:00:02.00

     Peak level 99.9 %
     Track quality 100.0 %
     Test CRC 7B65E87E
     Copy CRC 7B65E87E
     Accurately ripped (confidence 3)  [E6D88503]
     Copy OK

All tracks accurately ripped

No errors occurred

End of status report

2002 - Izgubljeni svijet (Затерянный мир) [Croatia Records – CD 5492573]

http://i52.fastpic.ru/big/2013/0210/d6/e053e668ee014f36dc6317eaee8ddfd6.jpg

Трэклист::

01. Oduzimaš mi dah (04:20)
02. Ne brini (04:25)
03. Mala garava (04:22)
04. Svjetla grada (04:42)
05. Na tvojoj strani postelje (03:47)
06. Ako odeš (04:04)
07. Zadnji let za Pariz (04:35)
08. U treptaj oka (04:54)
09. Bye Bye (04:37)
10. Ruke u zrak (04:12)
11. Ona (04:27)
12. Mjesečari (04:40)
13. Izgubljeni svijet (04:21)

Лог создания рипа

Exact Audio Copy V1.0 beta 3 from 29. August 2011

EAC extraction logfile from 28. September 2012, 23:31

Colonia / Izgubljeni svijet

Used drive  : PLEXTOR CD-R   PREMIUM   Adapter: 1  ID: 0

Read mode               : Secure
Utilize accurate stream : Yes
Defeat audio cache      : Yes
Make use of C2 pointers : No

Read offset correction                      : 30
Overread into Lead-In and Lead-Out          : Yes
Fill up missing offset samples with silence : Yes
Delete leading and trailing silent blocks   : No
Null samples used in CRC calculations       : Yes
Used interface                              : Native Win32 interface for Win NT & 2000
Gap handling                                : Appended to previous track

Used output format              : User Defined Encoder
Selected bitrate                : 1024 kBit/s
Quality                         : High
Add ID3 tag                     : No
Command line compressor         : C:\Program Files (x86)\FLAC\flac.exe
Additional command line options : -8 -V -T "ARTIST=%artist%" -T "TITLE=%title%" -T "ALBUM=%albumtitle%" -T "DATE=%year%" -T "TRACKNUMBER=%tracknr1%" -T "GENRE=%genre%" -T "PERFORMER=%albuminterpret%" -T "COMPOSER=%composer%" %haslyrics%--tag-from-file=LYRICS="%lyricsfile%"%haslyrics% -T "ALBUMARTIST=%albumartist%" -T "DISCNUMBER=%cdnumber%" -T "TOTALDISCS=%totalcds%" -T "TOTALTRACKS=%numtracks%" -T "COMMENT=%comment%" %source% -o %dest%

TOC of the extracted CD

     Track |   Start  |  Length  | Start sector | End sector
    ---------------------------------------------------------
        1  |  0:00.00 |  4:20.26 |         0    |    19525
        2  |  4:20.26 |  4:25.73 |     19526    |    39473
        3  |  8:46.24 |  4:22.40 |     39474    |    59163
        4  | 13:08.64 |  4:42.10 |     59164    |    80323
        5  | 17:50.74 |  3:47.15 |     80324    |    97363
        6  | 21:38.14 |  4:04.14 |     97364    |   115677
        7  | 25:42.28 |  4:35.25 |    115678    |   136327
        8  | 30:17.53 |  4:54.56 |    136328    |   158433
        9  | 35:12.34 |  4:37.21 |    158434    |   179229
       10  | 39:49.55 |  4:12.40 |    179230    |   198169
       11  | 44:02.20 |  4:27.14 |    198170    |   218208
       12  | 48:29.34 |  4:40.47 |    218209    |   239255
       13  | 53:10.06 |  4:21.18 |    239256    |   258848

Track  1

     Filename D:\What.CD\Colonia - Izgubljeni svijet (2002) - FLAC\01. Oduzimaš mi dah.wav

     Pre-gap length  0:00:02.00

     Peak level 98.8 %
     Extraction speed 2.4 X
     Track quality 100.0 %
     Test CRC 29F12425
     Copy CRC 29F12425
     Accurately ripped (confidence 2)  [74E280AD]  (AR v1)
     Copy OK

Track  2

     Filename D:\What.CD\Colonia - Izgubljeni svijet (2002) - FLAC\02. Ne brini.wav

     Pre-gap length  0:00:02.00

     Peak level 98.8 %
     Extraction speed 2.4 X
     Track quality 100.0 %
     Test CRC C93D1BA5
     Copy CRC C93D1BA5
     Accurately ripped (confidence 2)  [97EEE34C]  (AR v1)
     Copy OK

Track  3

     Filename D:\What.CD\Colonia - Izgubljeni svijet (2002) - FLAC\03. Mala garava.wav

     Pre-gap length  0:00:02.00

     Peak level 98.8 %
     Extraction speed 2.3 X
     Track quality 100.0 %
     Test CRC 4EFBE492
     Copy CRC 4EFBE492
     Accurately ripped (confidence 2)  [A8429FC1]  (AR v1)
     Copy OK

Track  4

     Filename D:\What.CD\Colonia - Izgubljeni svijet (2002) - FLAC\04. Svjetla grada.wav

     Pre-gap length  0:00:02.00

     Peak level 98.8 %
     Extraction speed 2.4 X
     Track quality 100.0 %
     Test CRC 182EAD45
     Copy CRC 182EAD45
     Accurately ripped (confidence 2)  [F50F57BD]  (AR v1)
     Copy OK

Track  5

     Filename D:\What.CD\Colonia - Izgubljeni svijet (2002) - FLAC\05. Na tvojoj strani postelje.wav

     Pre-gap length  0:00:02.00

     Peak level 98.8 %
     Extraction speed 2.3 X
     Track quality 100.0 %
     Test CRC C421E405
     Copy CRC C421E405
     Accurately ripped (confidence 2)  [B7364493]  (AR v1)
     Copy OK

Track  6

     Filename D:\What.CD\Colonia - Izgubljeni svijet (2002) - FLAC\06. Ako odeš.wav

     Pre-gap length  0:00:02.00

     Peak level 98.8 %
     Extraction speed 2.3 X
     Track quality 100.0 %
     Test CRC B24000A3
     Copy CRC B24000A3
     Accurately ripped (confidence 2)  [3D03DA99]  (AR v1)
     Copy OK

Track  7

     Filename D:\What.CD\Colonia - Izgubljeni svijet (2002) - FLAC\07. Zadnji let za Pariz.wav

     Pre-gap length  0:00:02.00

     Peak level 98.8 %
     Extraction speed 2.4 X
     Track quality 100.0 %
     Test CRC 9C90289E
     Copy CRC 9C90289E
     Accurately ripped (confidence 2)  [6E3619AB]  (AR v1)
     Copy OK

Track  8

     Filename D:\What.CD\Colonia - Izgubljeni svijet (2002) - FLAC\08. U treptaj oka.wav

     Pre-gap length  0:00:02.00

     Peak level 98.8 %
     Extraction speed 2.4 X
     Track quality 100.0 %
     Test CRC 75F8B49A
     Copy CRC 75F8B49A
     Accurately ripped (confidence 2)  [FA2E6B12]  (AR v1)
     Copy OK

Track  9

     Filename D:\What.CD\Colonia - Izgubljeni svijet (2002) - FLAC\09. Bye Bye.wav

     Pre-gap length  0:00:02.00

     Peak level 98.8 %
     Extraction speed 2.4 X
     Track quality 100.0 %
     Test CRC 0210453A
     Copy CRC 0210453A
     Accurately ripped (confidence 2)  [58C5150B]  (AR v1)
     Copy OK

Track 10

     Filename D:\What.CD\Colonia - Izgubljeni svijet (2002) - FLAC\10. Ruke u zrak.wav

     Pre-gap length  0:00:02.00

     Peak level 98.8 %
     Extraction speed 2.4 X
     Track quality 100.0 %
     Test CRC 77020AD0
     Copy CRC 77020AD0
     Accurately ripped (confidence 2)  [2A069E91]  (AR v1)
     Copy OK

Track 11

     Filename D:\What.CD\Colonia - Izgubljeni svijet (2002) - FLAC\11. Ona.wav

     Pre-gap length  0:00:02.00

     Peak level 98.8 %
     Extraction speed 2.3 X
     Track quality 100.0 %
     Test CRC DA62E7DF
     Copy CRC DA62E7DF
     Accurately ripped (confidence 2)  [5F6B80F8]  (AR v1)
     Copy OK

Track 12

     Filename D:\What.CD\Colonia - Izgubljeni svijet (2002) - FLAC\12. Mjesečari.wav

     Pre-gap length  0:00:02.00

     Peak level 98.8 %
     Extraction speed 2.4 X
     Track quality 100.0 %
     Test CRC 17855A3F
     Copy CRC 17855A3F
     Accurately ripped (confidence 2)  [648A83D4]  (AR v1)
     Copy OK

Track 13

     Filename D:\What.CD\Colonia - Izgubljeni svijet (2002) - FLAC\13. Izgubljeni svijet.wav

     Pre-gap length  0:00:02.00

     Peak level 98.8 %
     Extraction speed 2.5 X
     Track quality 99.9 %
     Test CRC 791CA1B9
     Copy CRC 791CA1B9
     Accurately ripped (confidence 2)  [E055FC19]  (AR v1)
     Copy OK

All tracks accurately ripped

No errors occurred

End of status report

---- CUETools DB Plugin V2.1.3

[CTDB TOCID: HeFv3qsLVNWWT.3.ktmF5eKwEJA-] found, Submit result: HeFv3qsLVNWWT.3.ktmF5eKwEJA- has been confirmed
[8ec29577] (3/3) Accurately ripped

==== Log checksum 40F03333F19DEEABA24A2134092AD0D69ADC393149DC1629B745B70237093E51 ====

2003 - Dolazi oluja (Наступает буря)

http://i53.fastpic.ru/big/2013/0210/c2/9b5b847875dcc48e370ddfb4f97bc9c2.jpeg

Трэклист::

01. C'est La Vie (04:07)
02. Luda Za Tobom (04:25)
03. Sto Mi Je Ovo Trebalo (03:45)
04. Zima Je... (04:52)
05. Plamen Od Ljubavi (03:59)
06. Dolazi Oluja (04:07)
07. Iluzija Feat. Turki Taata (03:59)
08. Oci Boje Meda (04:22)
09. Obican Dan (04:03)
10. Ne Gledaj Me Tako (03:23)
11. Ljeto 80 I Neke (05:31)
12. Prvi Poljubac (04:17)
13. Pali, Kreni, Gas I Fiju Briju (04:04)

Лог создания рипа

Exact Audio Copy V1.0 beta 1 from 15. November 2010

EAC extraction logfile from 26. December 2010, 19:26

Colonia / Dolazi Oluja

Used drive  : PIONEER DVD-RW  DVR-215D   Adapter: 0  ID: 1

Read mode               : Secure
Utilize accurate stream : Yes
Defeat audio cache      : Yes
Make use of C2 pointers : No

Read offset correction                      : 48
Overread into Lead-In and Lead-Out          : No
Fill up missing offset samples with silence : Yes
Delete leading and trailing silent blocks   : No
Null samples used in CRC calculations       : No
Used interface                              : Native Win32 interface for Win NT & 2000
Gap handling                                : Appended to previous track

Used output format              : User Defined Encoder
Selected bitrate                : 192 kBit/s
Quality                         : High
Add ID3 tag                     : Yes
Command line compressor         : D:\Programs\FLAC\flac.exe
Additional command line options : -8 -A tukey(0.25) -A gauss(0.1875) -b 4096 -V -T "artist=%a" -T "title=%t" -T "album=%g" -T "date=%y" -T "tracknumber=%n" -T "genre=%m" %s --sector-align

TOC of the extracted CD

     Track |   Start  |  Length  | Start sector | End sector
    ---------------------------------------------------------
        1  |  0:00.00 |  4:07.24 |         0    |    18548
        2  |  4:07.24 |  4:25.26 |     18549    |    38449
        3  |  8:32.50 |  3:45.01 |     38450    |    55325
        4  | 12:17.51 |  4:52.60 |     55326    |    77285
        5  | 17:10.36 |  3:59.24 |     77286    |    95234
        6  | 21:09.60 |  4:07.00 |     95235    |   113759
        7  | 25:16.60 |  3:59.60 |    113760    |   131744
        8  | 29:16.45 |  4:22.72 |    131745    |   151466
        9  | 33:39.42 |  4:03.47 |    151467    |   169738
       10  | 37:43.14 |  3:23.17 |    169739    |   184980
       11  | 41:06.31 |  5:31.42 |    184981    |   209847
       12  | 46:37.73 |  4:17.47 |    209848    |   229169
       13  | 50:55.45 |  4:04.20 |    229170    |   247489
       14  | 57:31.65 |  8:56.54 |    258890    |   299143

Track  1

     Filename G:\Muzika\Colonia\Dolazi Oluja FLAC\01. Colonia - C'est La Vie.wav

     Pre-gap length  0:00:02.00

     Peak level 98.8 %
     Extraction speed 4.7 X
     Track quality 100.0 %
     Test CRC 87322204
     Copy CRC 87322204
     Copy OK

Track  2

     Filename G:\Muzika\Colonia\Dolazi Oluja FLAC\02. Colonia - Luda Za Tobom.wav

     Pre-gap length  0:00:02.00

     Peak level 98.8 %
     Extraction speed 4.6 X
     Track quality 99.9 %
     Test CRC 26E5BAC9
     Copy CRC 26E5BAC9
     Copy OK

Track  3

     Filename G:\Muzika\Colonia\Dolazi Oluja FLAC\03. Colonia - Sto Mi Je Ovo Trebalo.wav

     Pre-gap length  0:00:02.00

     Peak level 98.8 %
     Extraction speed 5.4 X
     Track quality 100.0 %
     Test CRC 565D1CB9
     Copy CRC 565D1CB9
     Copy OK

Track  4

     Filename G:\Muzika\Colonia\Dolazi Oluja FLAC\04. Colonia - Zima Je....wav

     Pre-gap length  0:00:02.00

     Peak level 98.8 %
     Extraction speed 6.1 X
     Track quality 100.0 %
     Test CRC EFC00655
     Copy CRC EFC00655
     Copy OK

Track  5

     Filename G:\Muzika\Colonia\Dolazi Oluja FLAC\05. Colonia - Plamen Od Ljubavi.wav

     Pre-gap length  0:00:02.00

     Peak level 98.8 %
     Extraction speed 6.3 X
     Track quality 100.0 %
     Test CRC C542A2E2
     Copy CRC C542A2E2
     Copy OK

Track  6

     Filename G:\Muzika\Colonia\Dolazi Oluja FLAC\06. Colonia - Dolazi Oluja.wav

     Pre-gap length  0:00:02.00

     Peak level 98.8 %
     Extraction speed 6.3 X
     Track quality 100.0 %
     Test CRC 05E51589
     Copy CRC 05E51589
     Copy OK

Track  7

     Filename G:\Muzika\Colonia\Dolazi Oluja FLAC\07. Colonia - Iluzija Feat. Turki Taata.wav

     Pre-gap length  0:00:02.00

     Peak level 98.8 %
     Extraction speed 6.7 X
     Track quality 100.0 %
     Test CRC F0DF12D4
     Copy CRC F0DF12D4
     Copy OK

Track  8

     Filename G:\Muzika\Colonia\Dolazi Oluja FLAC\08. Colonia - Oci Boje Meda.wav

     Pre-gap length  0:00:02.00

     Peak level 98.8 %
     Extraction speed 7.3 X
     Track quality 100.0 %
     Test CRC 598ECFBC
     Copy CRC 598ECFBC
     Copy OK

Track  9

     Filename G:\Muzika\Colonia\Dolazi Oluja FLAC\09. Colonia - Obican Dan.wav

     Pre-gap length  0:00:02.00

     Peak level 98.8 %
     Extraction speed 7.0 X
     Track quality 100.0 %
     Test CRC 7095953A
     Copy CRC 7095953A
     Copy OK

Track 10

     Filename G:\Muzika\Colonia\Dolazi Oluja FLAC\10. Colonia - Ne Gledaj Me Tako.wav

     Pre-gap length  0:00:02.00

     Peak level 98.8 %
     Extraction speed 6.3 X
     Track quality 99.9 %
     Test CRC DE29996B
     Copy CRC DE29996B
     Copy OK

Track 11

     Filename G:\Muzika\Colonia\Dolazi Oluja FLAC\11. Colonia - Ljeto 80 I Neke.wav

     Pre-gap length  0:00:02.00

     Peak level 98.8 %
     Extraction speed 7.6 X
     Track quality 100.0 %
     Test CRC 2F6FA5F6
     Copy CRC 2F6FA5F6
     Copy OK

Track 12

     Filename G:\Muzika\Colonia\Dolazi Oluja FLAC\12. Colonia - Prvi Poljubac.wav

     Pre-gap length  0:00:02.00

     Peak level 98.8 %
     Extraction speed 7.9 X
     Track quality 100.0 %
     Test CRC D175E002
     Copy CRC D175E002
     Copy OK

Track 13

     Filename G:\Muzika\Colonia\Dolazi Oluja FLAC\13. Colonia - Pali, Kreni, Gas I Fiju Briju.wav

     Pre-gap length  0:00:01.74

     Peak level 98.8 %
     Extraction speed 6.5 X
     Track quality 100.0 %
     Test CRC 00F3E8CD
     Copy CRC 00F3E8CD
     Copy OK

No errors occurred

End of status report

2005 - Najbolje od svega (Лучший из всех) [Menart – 385888286912]

http://i54.fastpic.ru/big/2013/0210/0e/e4df04b4c7cf8de540f59bee680e540e.jpg

Трэклист::

01. Najbolje od svega (04:15)
02. Nema nade (04:27)
03. Time (04:04)
04. Sad te ima sad te nema (03:35)
05. Tako sexy (05:00)
06. Meni treba ljubav (03:16)
07. Tako kratko te znam (04:05)
08. Drugi čovjek (03:35)
09. Padaju domine (03:30)
10. Ni traga ni glasa (03:34)
11. Varalico (03:38)
12. Nema nade (Harem Remix) (04:37)
13. Time (Eurodance Remix) (04:31)

Лог создания рипа

Exact Audio Copy V1.0 beta 3 from 29. August 2011

EAC extraction logfile from 22. December 2011, 17:42

Colonia / Najbolje od svega

Used drive  : PIONEER DVD-RW  DVR-111D   Adapter: 1  ID: 0

Read mode               : Secure
Utilize accurate stream : Yes
Defeat audio cache      : Yes
Make use of C2 pointers : No

Read offset correction                      : 48
Overread into Lead-In and Lead-Out          : Yes
Fill up missing offset samples with silence : Yes
Delete leading and trailing silent blocks   : No
Null samples used in CRC calculations       : Yes
Used interface                              : Installed external ASPI interface
Gap handling                                : Appended to previous track

Used output format              : User Defined Encoder
Selected bitrate                : 896 kBit/s
Quality                         : High
Add ID3 tag                     : No
Command line compressor         : C:\Program Files\FLAC\flac.exe
Additional command line options : -V -8 -T "artist=%artist%" -T "title=%title%" -T "album=%albumtitle%" -T "date=%year%" -T "tracknumber=%tracknr2%" -T "genre=%genre%" %source%

TOC of the extracted CD

     Track |   Start  |  Length  | Start sector | End sector
    ---------------------------------------------------------
        1  |  0:00.00 |  4:15.73 |         0    |    19197
        2  |  4:15.73 |  4:27.34 |     19198    |    39256
        3  |  8:43.32 |  4:04.13 |     39257    |    57569
        4  | 12:47.45 |  3:35.60 |     57570    |    73754
        5  | 16:23.30 |  5:00.48 |     73755    |    96302
        6  | 21:24.03 |  3:16.28 |     96303    |   111030
        7  | 24:40.31 |  4:05.05 |    111031    |   129410
        8  | 28:45.36 |  3:35.33 |    129411    |   145568
        9  | 32:20.69 |  3:30.27 |    145569    |   161345
       10  | 35:51.21 |  3:34.33 |    161346    |   177428
       11  | 39:25.54 |  3:38.13 |    177429    |   193791
       12  | 43:03.67 |  4:37.66 |    193792    |   214632
       13  | 47:41.58 |  4:31.10 |    214633    |   234967

Track  1

     Filename D:\FLAC\Colonia - Najbolje od svega - 01 - Najbolje od svega.wav

     Pre-gap length  0:00:02.00

     Peak level 98.8 %
     Extraction speed 4.0 X
     Track quality 99.9 %
     Test CRC 8599C220
     Copy CRC 8599C220
     Cannot be verified as accurate (confidence 1)  [4BDF7578], AccurateRip returned [73ECB422]  (AR v2)
     Copy OK

Track  2

     Filename D:\FLAC\Colonia - Najbolje od svega - 02 - Nema nade.wav

     Pre-gap length  0:00:01.77

     Peak level 98.8 %
     Extraction speed 5.0 X
     Track quality 100.0 %
     Test CRC 3B4ADB1C
     Copy CRC 3B4ADB1C
     Cannot be verified as accurate (confidence 1)  [CDDEF443], AccurateRip returned [8885E81E]  (AR v2)
     Copy OK

Track  3

     Filename D:\FLAC\Colonia - Najbolje od svega - 03 - Time.wav

     Pre-gap length  0:00:01.64

     Peak level 98.8 %
     Extraction speed 5.4 X
     Track quality 100.0 %
     Test CRC 0EC6107C
     Copy CRC 0EC6107C
     Cannot be verified as accurate (confidence 1)  [71CE16BD], AccurateRip returned [5C384B11]  (AR v2)
     Copy OK

Track  4

     Filename D:\FLAC\Colonia - Najbolje od svega - 04 - Sad te ima sad te nema.wav

     Pre-gap length  0:00:01.96

     Peak level 98.8 %
     Extraction speed 4.9 X
     Track quality 99.9 %
     Test CRC 9582B93C
     Copy CRC 9582B93C
     Cannot be verified as accurate (confidence 1)  [308FD54A], AccurateRip returned [5FF03A76]  (AR v2)
     Copy OK

Track  5

     Filename D:\FLAC\Colonia - Najbolje od svega - 05 - Tako sexy.wav

     Pre-gap length  0:00:01.73

     Peak level 98.8 %
     Extraction speed 6.3 X
     Track quality 100.0 %
     Test CRC FA36AA14
     Copy CRC FA36AA14
     Cannot be verified as accurate (confidence 1)  [2CA98138], AccurateRip returned [314A2CA9]  (AR v2)
     Copy OK

Track  6

     Filename D:\FLAC\Colonia - Najbolje od svega - 06 - Meni treba ljubav.wav

     Pre-gap length  0:00:01.94

     Peak level 98.8 %
     Extraction speed 6.2 X
     Track quality 100.0 %
     Test CRC 1EE67840
     Copy CRC 1EE67840
     Cannot be verified as accurate (confidence 1)  [C8B03DE1], AccurateRip returned [EA9FC460]  (AR v2)
     Copy OK

Track  7

     Filename D:\FLAC\Colonia - Najbolje od svega - 07 - Tako kratko te znam.wav

     Pre-gap length  0:00:01.72

     Peak level 97.7 %
     Extraction speed 6.7 X
     Track quality 100.0 %
     Test CRC F0AA588E
     Copy CRC F0AA588E
     Cannot be verified as accurate (confidence 1)  [7EA6C81C], AccurateRip returned [55480D63]  (AR v2)
     Copy OK

Track  8

     Filename D:\FLAC\Colonia - Najbolje od svega - 08 - Drugi čovjek.wav

     Pre-gap length  0:00:00.02

     Peak level 98.8 %
     Extraction speed 6.0 X
     Track quality 99.9 %
     Test CRC 2D1C1C70
     Copy CRC 2D1C1C70
     Cannot be verified as accurate (confidence 1)  [E2425CD9], AccurateRip returned [B16D2D31]  (AR v2)
     Copy OK

Track  9

     Filename D:\FLAC\Colonia - Najbolje od svega - 09 - Padaju domine.wav

     Pre-gap length  0:00:01.92

     Peak level 98.8 %
     Extraction speed 7.0 X
     Track quality 100.0 %
     Test CRC 3DD82C7F
     Copy CRC 3DD82C7F
     Cannot be verified as accurate (confidence 1)  [503BF5D9], AccurateRip returned [A18FA9E5]  (AR v2)
     Copy OK

Track 10

     Filename D:\FLAC\Colonia - Najbolje od svega - 10 - Ni traga ni glasa.wav

     Pre-gap length  0:00:01.72

     Peak level 97.7 %
     Extraction speed 6.3 X
     Track quality 99.9 %
     Test CRC E7FF0582
     Copy CRC E7FF0582
     Cannot be verified as accurate (confidence 1)  [1260194A], AccurateRip returned [15064A1B]  (AR v2)
     Copy OK

Track 11

     Filename D:\FLAC\Colonia - Najbolje od svega - 11 - Varalico.wav

     Pre-gap length  0:00:02.00

     Peak level 98.8 %
     Extraction speed 7.5 X
     Track quality 100.0 %
     Test CRC A96628B6
     Copy CRC A96628B6
     Cannot be verified as accurate (confidence 1)  [CB51D0C1], AccurateRip returned [BDC4D500]  (AR v2)
     Copy OK

Track 12

     Filename D:\FLAC\Colonia - Najbolje od svega - 12 - Nema nade (Harem Remix).wav

     Pre-gap length  0:00:01.58

     Peak level 98.8 %
     Extraction speed 7.1 X
     Track quality 99.9 %
     Test CRC AEEC52CA
     Copy CRC AEEC52CA
     Cannot be verified as accurate (confidence 1)  [3EF906BF], AccurateRip returned [8008C22C]  (AR v2)
     Copy OK

Track 13

     Filename D:\FLAC\Colonia - Najbolje od svega - 13 - Time (Eurodance Remix).wav

     Pre-gap length  0:00:01.80

     Peak level 98.8 %
     Extraction speed 8.9 X
     Track quality 100.0 %
     Test CRC DF8ABA69
     Copy CRC DF8ABA69
     Cannot be verified as accurate (confidence 1)  [EB201FA5], AccurateRip returned [237CD740]  (AR v2)
     Copy OK

No tracks could be verified as accurate
You may have a different pressing from the one(s) in the database

No errors occurred

End of status report

==== Log checksum DA699C337B2CA3BE4E89B9D4E3C58845CC83D910B403DBE2B0E150E233A3C68F ====

2005 - Gold edition (2 CD) [Croatia Records – 2CD 5660682]

http://i52.fastpic.ru/big/2013/0210/eb/76aeb217c76c87a6eb0a23007118deeb.jpg

Disc 1:

Трэклист:

01. Sve oko mene je grijeh (04:50)
02. Njeno ime ne zovi u snu (03:59)
03. Deja vu (03:37)
04. Za tvoje snene oči (feat. Neno DJ) (04:38)
05. Svijet voli pobjednike (04:04)
06. Nikad više (feat. Jacques Houdek) (04:12)
07. Takvi kao ti (04:21)
08. Nevjera (04:28)
09. Oduzimaš mi dah (04:20)
10. Svjetla grada (04:42)
11. Na tvojoj strani postelje (03:47)
12. Zadnji let za Pariz (04:37)
13. C'est la vie (04:07)
14. Plamen od ljubavi (03:59)
15. Luda za tobom (04:25)
16. Ljeto 80 i neke (05:33)
17. Običan dan (04:03)
18. Prvi poljubac (04:17)

Disc 2:

Треклист:

01. U ritmu ljubavi (summer extended rmx) (04:15)
02. Dok je tebe i ljubavi (unreleased extended rmx) (04:11)
03. Ti da bu di bu da (Goblin extended rmx) (04:37)
04. Božićna noć (remix) (03:55)
05. Prvi i zadnji (LP extended rmx) (06:25)
06. Takvi kao ti (LP extended rmx) (06:54)
07. Još jednom za kraj (LP extended rmx) (05:52)
08. Svijet voli pobjednike (feat. Neno DJ) (LP extended rmx) (04:54)
09. Za tvoje snene oči (LP extended rmx) (07:53)
10. Oduzimaš mi dah (acapella dub mix) (03:51)
11. C'est la vie (pop carousel mix) (03:27)
12. Običan dan (Motiwwwo remix) (06:45)
13. Medley hit mix 2005 (Vatra i led - Sve oko mene je grijeh - Dio nje) (06:34)

Лог создания рипа (CD1)

Exact Audio Copy V1.0 beta 1 from 15. November 2010

EAC extraction logfile from 2. March 2011, 1:42

Colonia / Gold edition [Disc 1]

Used drive  : ATAPI   DVD A  DH20A3P   Adapter: 2  ID: 1

Read mode               : Secure
Utilize accurate stream : Yes
Defeat audio cache      : Yes
Make use of C2 pointers : No

Read offset correction                      : 6
Overread into Lead-In and Lead-Out          : No
Fill up missing offset samples with silence : Yes
Delete leading and trailing silent blocks   : No
Null samples used in CRC calculations       : Yes
Used interface                              : Native Win32 interface for Win NT & 2000
Gap handling                                : Appended to previous track

Used output format              : User Defined Encoder
Selected bitrate                : 32 kBit/s
Quality                         : High
Add ID3 tag                     : No
Command line compressor         : C:\Program Files (x86)\Exact Audio Copy 1.0\Flac\flac.exe
Additional command line options : -V -8 -T "artist=%a" -T "title=%t" -T "album=%g" -T "date=%y" -T "tracknumber=%n" -T "genre=%m" %s

TOC of the extracted CD

     Track |   Start  |  Length  | Start sector | End sector
    ---------------------------------------------------------
        1  |  0:00.00 |  4:50.21 |         0    |    21770
        2  |  4:50.21 |  3:59.24 |     21771    |    39719
        3  |  8:49.45 |  3:37.72 |     39720    |    56066
        4  | 12:27.42 |  4:38.33 |     56067    |    76949
        5  | 17:06.00 |  4:04.63 |     76950    |    95312
        6  | 21:10.63 |  4:12.00 |     95313    |   114212
        7  | 25:22.63 |  4:21.58 |    114213    |   133845
        8  | 29:44.46 |  4:28.05 |    133846    |   153950
        9  | 34:12.51 |  4:20.27 |    153951    |   173477
       10  | 38:33.03 |  4:42.17 |    173478    |   194644
       11  | 43:15.20 |  3:47.23 |    194645    |   211692
       12  | 47:02.43 |  4:37.25 |    211693    |   232492
       13  | 51:39.68 |  4:07.31 |    232493    |   251048
       14  | 55:47.24 |  3:59.19 |    251049    |   268992
       15  | 59:46.43 |  4:25.35 |    268993    |   288902
       16  | 64:12.03 |  5:33.42 |    288903    |   313919
       17  | 69:45.45 |  4:03.53 |    313920    |   332197
       18  | 73:49.23 |  4:17.47 |    332198    |   351519

Track  1

     Filename E:\Rips\EAC\Colonia - 2005 - Gold edition [Disc 1]\01 - Sve oko mene je grijeh.wav

     Pre-gap length  0:00:02.00

     Peak level 98.8 %
     Extraction speed 5.1 X
     Track quality 100.0 %
     Test CRC 920C56C4
     Copy CRC 920C56C4
     Track not present in AccurateRip database
     Copy OK

Track  2

     Filename E:\Rips\EAC\Colonia - 2005 - Gold edition [Disc 1]\02 - Njeno ime ne zovi u snu.wav

     Pre-gap length  0:00:02.00

     Peak level 98.8 %
     Extraction speed 5.4 X
     Track quality 100.0 %
     Test CRC 2791B68D
     Copy CRC 2791B68D
     Track not present in AccurateRip database
     Copy OK

Track  3

     Filename E:\Rips\EAC\Colonia - 2005 - Gold edition [Disc 1]\03 - Deja vu.wav

     Pre-gap length  0:00:02.00

     Peak level 98.8 %
     Extraction speed 5.7 X
     Track quality 100.0 %
     Test CRC EE2A35FE
     Copy CRC EE2A35FE
     Track not present in AccurateRip database
     Copy OK

Track  4

     Filename E:\Rips\EAC\Colonia - 2005 - Gold edition [Disc 1]\04 - Za tvoje snene oči (feat. Neno DJ).wav

     Pre-gap length  0:00:02.00

     Peak level 83.1 %
     Extraction speed 6.3 X
     Track quality 100.0 %
     Test CRC 8D5BE0C3
     Copy CRC 8D5BE0C3
     Track not present in AccurateRip database
     Copy OK

Track  5

     Filename E:\Rips\EAC\Colonia - 2005 - Gold edition [Disc 1]\05 - Svijet voli pobjednike.wav

     Pre-gap length  0:00:02.00

     Peak level 94.4 %
     Extraction speed 6.5 X
     Track quality 100.0 %
     Test CRC 14EECAE3
     Copy CRC 14EECAE3
     Track not present in AccurateRip database
     Copy OK

Track  6

     Filename E:\Rips\EAC\Colonia - 2005 - Gold edition [Disc 1]\06 - Nikad više (feat. Jacques Houdek).wav

     Pre-gap length  0:00:02.00

     Peak level 84.1 %
     Extraction speed 5.6 X
     Track quality 99.9 %
     Test CRC 59EEB32E
     Copy CRC 59EEB32E
     Track not present in AccurateRip database
     Copy OK

Track  7

     Filename E:\Rips\EAC\Colonia - 2005 - Gold edition [Disc 1]\07 - Takvi kao ti.wav

     Pre-gap length  0:00:02.00

     Peak level 81.2 %
     Extraction speed 7.3 X
     Track quality 100.0 %
     Test CRC 9DBDA3D4
     Copy CRC 9DBDA3D4
     Track not present in AccurateRip database
     Copy OK

Track  8

     Filename E:\Rips\EAC\Colonia - 2005 - Gold edition [Disc 1]\08 - Nevjera.wav

     Pre-gap length  0:00:02.00

     Peak level 94.4 %
     Extraction speed 7.6 X
     Track quality 100.0 %
     Test CRC 49E63980
     Copy CRC 49E63980
     Track not present in AccurateRip database
     Copy OK

Track  9

     Filename E:\Rips\EAC\Colonia - 2005 - Gold edition [Disc 1]\09 - Oduzimaš mi dah.wav

     Pre-gap length  0:00:02.00

     Peak level 98.8 %
     Extraction speed 7.8 X
     Track quality 100.0 %
     Test CRC A5C8C195
     Copy CRC A5C8C195
     Track not present in AccurateRip database
     Copy OK

Track 10

     Filename E:\Rips\EAC\Colonia - 2005 - Gold edition [Disc 1]\10 - Svjetla grada.wav

     Pre-gap length  0:00:02.00

     Peak level 98.8 %
     Extraction speed 6.7 X
     Track quality 99.9 %
     Test CRC B25183E8
     Copy CRC B25183E8
     Track not present in AccurateRip database
     Copy OK

Track 11

     Filename E:\Rips\EAC\Colonia - 2005 - Gold edition [Disc 1]\11 - Na tvojoj strani postelje.wav

     Pre-gap length  0:00:02.00

     Peak level 98.8 %
     Extraction speed 8.2 X
     Track quality 100.0 %
     Test CRC 5C034B14
     Copy CRC 5C034B14
     Track not present in AccurateRip database
     Copy OK

Track 12

     Filename E:\Rips\EAC\Colonia - 2005 - Gold edition [Disc 1]\12 - Zadnji let za Pariz.wav

     Pre-gap length  0:00:02.00

     Peak level 98.8 %
     Extraction speed 8.8 X
     Track quality 100.0 %
     Test CRC A9081C13
     Copy CRC A9081C13
     Track not present in AccurateRip database
     Copy OK

Track 13

     Filename E:\Rips\EAC\Colonia - 2005 - Gold edition [Disc 1]\13 - C'est la vie.wav

     Pre-gap length  0:00:02.00

     Peak level 89.1 %
     Extraction speed 3.2 X
     Track quality 99.7 %
     Test CRC 73173CF2
     Copy CRC 73173CF2
     Track not present in AccurateRip database
     Copy OK

Track 14

     Filename E:\Rips\EAC\Colonia - 2005 - Gold edition [Disc 1]\14 - Plamen od ljubavi.wav

     Pre-gap length  0:00:02.00

     Peak level 94.4 %
     Extraction speed 9.0 X
     Track quality 100.0 %
     Test CRC A7FF8DCF
     Copy CRC A7FF8DCF
     Track not present in AccurateRip database
     Copy OK

Track 15

     Filename E:\Rips\EAC\Colonia - 2005 - Gold edition [Disc 1]\15 - Luda za tobom.wav

     Pre-gap length  0:00:02.00

     Peak level 93.3 %
     Extraction speed 8.4 X
     Track quality 100.0 %
     Test CRC BC47032A
     Copy CRC BC47032A
     Track not present in AccurateRip database
     Copy OK

Track 16

     Filename E:\Rips\EAC\Colonia - 2005 - Gold edition [Disc 1]\16 - Ljeto 80 i neke.wav

     Pre-gap length  0:00:02.00

     Peak level 88.1 %
     Extraction speed 10.0 X
     Track quality 100.0 %
     Test CRC 13268FC5
     Copy CRC 13268FC5
     Track not present in AccurateRip database
     Copy OK

Track 17

     Filename E:\Rips\EAC\Colonia - 2005 - Gold edition [Disc 1]\17 - Običan dan.wav

     Pre-gap length  0:00:02.00

     Peak level 98.8 %
     Extraction speed 9.9 X
     Track quality 100.0 %
     Test CRC 2FB01904
     Copy CRC 2FB01904
     Track not present in AccurateRip database
     Copy OK

Track 18

     Filename E:\Rips\EAC\Colonia - 2005 - Gold edition [Disc 1]\18 - Prvi poljubac.wav

     Pre-gap length  0:00:02.00

     Peak level 88.1 %
     Extraction speed 5.7 X
     Track quality 99.8 %
     Test CRC 8ADFD20B
     Copy CRC 8ADFD20B
     Track not present in AccurateRip database
     Copy OK

None of the tracks are present in the AccurateRip database

No errors occurred

End of status report

==== Log checksum 19A74AF99FF8A2B4E8D6C9B3E02D09D5304B80125E51B7E6326C5C78F877A202 ====

Лог создания рипа (CD2)

Exact Audio Copy V1.0 beta 1 from 15. November 2010

EAC extraction logfile from 2. March 2011, 3:01

Colonia / Gold edition [Disc 2]

Used drive  : ATAPI   DVD A  DH20A3P   Adapter: 2  ID: 1

Read mode               : Secure
Utilize accurate stream : Yes
Defeat audio cache      : Yes
Make use of C2 pointers : No

Read offset correction                      : 6
Overread into Lead-In and Lead-Out          : No
Fill up missing offset samples with silence : Yes
Delete leading and trailing silent blocks   : No
Null samples used in CRC calculations       : Yes
Used interface                              : Native Win32 interface for Win NT & 2000
Gap handling                                : Appended to previous track

Used output format              : User Defined Encoder
Selected bitrate                : 32 kBit/s
Quality                         : High
Add ID3 tag                     : No
Command line compressor         : C:\Program Files (x86)\Exact Audio Copy 1.0\Flac\flac.exe
Additional command line options : -V -8 -T "artist=%a" -T "title=%t" -T "album=%g" -T "date=%y" -T "tracknumber=%n" -T "genre=%m" %s

TOC of the extracted CD

     Track |   Start  |  Length  | Start sector | End sector
    ---------------------------------------------------------
        1  |  0:00.00 |  4:15.01 |         0    |    19125
        2  |  4:15.01 |  4:11.00 |     19126    |    37950
        3  |  8:26.01 |  4:37.61 |     37951    |    58786
        4  | 13:03.62 |  3:55.19 |     58787    |    76430
        5  | 16:59.06 |  6:25.62 |     76431    |   105367
        6  | 23:24.68 |  6:54.47 |    105368    |   136464
        7  | 30:19.40 |  5:52.31 |    136465    |   162895
        8  | 36:11.71 |  4:54.40 |    162896    |   184985
        9  | 41:06.36 |  7:53.36 |    184986    |   220496
       10  | 48:59.72 |  3:51.30 |    220497    |   237851
       11  | 52:51.27 |  3:27.11 |    237852    |   253387
       12  | 56:18.38 |  6:45.05 |    253388    |   283767
       13  | 63:03.43 |  6:34.33 |    283768    |   313350

Track  1

     Filename E:\Rips\EAC\Colonia - 2005 - Gold edition [Disc 2]\01 - U ritmu ljubavi (summer extended rmx).wav

     Pre-gap length  0:00:02.00

     Peak level 98.8 %
     Extraction speed 4.0 X
     Track quality 99.9 %
     Test CRC 479666B1
     Copy CRC 479666B1
     Track not present in AccurateRip database
     Copy OK

Track  2

     Filename E:\Rips\EAC\Colonia - 2005 - Gold edition [Disc 2]\02 - Dok je tebe i ljubavi (unreleased extended rmx).wav

     Pre-gap length  0:00:02.00

     Peak level 98.8 %
     Extraction speed 5.4 X
     Track quality 100.0 %
     Test CRC 68C6836B
     Copy CRC 68C6836B
     Track not present in AccurateRip database
     Copy OK

Track  3

     Filename E:\Rips\EAC\Colonia - 2005 - Gold edition [Disc 2]\03 - Ti da bu di bu da (Goblin extended rmx).wav

     Pre-gap length  0:00:02.00

     Peak level 95.4 %
     Extraction speed 6.0 X
     Track quality 100.0 %
     Test CRC 7C8967BB
     Copy CRC 7C8967BB
     Track not present in AccurateRip database
     Copy OK

Track  4

     Filename E:\Rips\EAC\Colonia - 2005 - Gold edition [Disc 2]\04 - Božićna noć (remix).wav

     Pre-gap length  0:00:02.00

     Peak level 89.1 %
     Extraction speed 6.2 X
     Track quality 100.0 %
     Test CRC 36D84C6B
     Copy CRC 36D84C6B
     Track not present in AccurateRip database
     Copy OK

Track  5

     Filename E:\Rips\EAC\Colonia - 2005 - Gold edition [Disc 2]\05 - Prvi i zadnji (LP extended rmx).wav

     Pre-gap length  0:00:01.98

     Peak level 98.8 %
     Extraction speed 6.1 X
     Track quality 99.9 %
     Test CRC 5509221A
     Copy CRC 5509221A
     Track not present in AccurateRip database
     Copy OK

Track  6

     Filename E:\Rips\EAC\Colonia - 2005 - Gold edition [Disc 2]\06 - Takvi kao ti (LP extended rmx).wav

     Pre-gap length  0:00:02.00

     Peak level 83.1 %
     Extraction speed 7.7 X
     Track quality 100.0 %
     Test CRC 50565FC6
     Copy CRC 50565FC6
     Track not present in AccurateRip database
     Copy OK

Track  7

     Filename E:\Rips\EAC\Colonia - 2005 - Gold edition [Disc 2]\07 - Još jednom za kraj (LP extended rmx).wav

     Pre-gap length  0:00:02.00

     Peak level 79.4 %
     Extraction speed 8.1 X
     Track quality 100.0 %
     Test CRC E32CE58C
     Copy CRC E32CE58C
     Track not present in AccurateRip database
     Copy OK

Track  8

     Filename E:\Rips\EAC\Colonia - 2005 - Gold edition [Disc 2]\08 - Svijet voli pobjednike (feat. Neno DJ) (LP extended rmx).wav

     Pre-gap length  0:00:02.00

     Peak level 94.4 %
     Extraction speed 6.9 X
     Track quality 99.9 %
     Test CRC 7467382D
     Copy CRC 7467382D
     Track not present in AccurateRip database
     Copy OK

Track  9

     Filename E:\Rips\EAC\Colonia - 2005 - Gold edition [Disc 2]\09 - Za tvoje snene oči (LP extended rmx).wav

     Pre-gap length  0:00:02.00

     Peak level 98.8 %
     Extraction speed 9.2 X
     Track quality 100.0 %
     Test CRC 39D7E73D
     Copy CRC 39D7E73D
     Track not present in AccurateRip database
     Copy OK

Track 10

     Filename E:\Rips\EAC\Colonia - 2005 - Gold edition [Disc 2]\10 - Oduzimaš mi dah (acapella dub mix).wav

     Pre-gap length  0:00:02.00

     Peak level 98.8 %
     Extraction speed 8.8 X
     Track quality 100.0 %
     Test CRC 30F4FD42
     Copy CRC 30F4FD42
     Track not present in AccurateRip database
     Copy OK

Track 11

     Filename E:\Rips\EAC\Colonia - 2005 - Gold edition [Disc 2]\11 - C'est la vie (pop carousel mix).wav

     Pre-gap length  0:00:02.00

     Peak level 98.8 %
     Extraction speed 8.8 X
     Track quality 100.0 %
     Test CRC 4F1262D4
     Copy CRC 4F1262D4
     Track not present in AccurateRip database
     Copy OK

Track 12

     Filename E:\Rips\EAC\Colonia - 2005 - Gold edition [Disc 2]\12 - Običan dan (Motiwwwo remix).wav

     Pre-gap length  0:00:02.00

     Peak level 89.1 %
     Extraction speed 9.9 X
     Track quality 100.0 %
     Test CRC 04A1A042
     Copy CRC 04A1A042
     Track not present in AccurateRip database
     Copy OK

Track 13

     Filename E:\Rips\EAC\Colonia - 2005 - Gold edition [Disc 2]\13 - Medley hit mix 2005 (Vatra i led - Sve oko mene je grijeh - Dio nje).wav

     Pre-gap length  0:00:02.00

     Peak level 94.4 %
     Extraction speed 10.3 X
     Track quality 100.0 %
     Test CRC 757CD91A
     Copy CRC 757CD91A
     Track not present in AccurateRip database
     Copy OK

None of the tracks are present in the AccurateRip database

No errors occurred

End of status report

==== Log checksum AA4594F5905EBF49DDE166C46775A66783EA896D123B96932AECD61AC5833956 ====

2

FLAC (tracks) No Log, No Cue (Источник: mojblink.com)

2006 - Do Kraja (До Предела) [City Records ‎– CD 000 540]

http://i47.fastpic.ru/big/2013/0613/8e/23bf7dc2093a0dcb78eb782b85bbac8e.jpg

Трэклист::

01. Do Kraja (04:13)
02. Pogledom Me Skini (03:41)
03. Oči U Oči (03:44)
04. Tipično Muški (03:31)
05. Dvoje (03:32)
06. Fjaka (02:49)
07. Samo Da Si Tu (03:41)
08. Party On! (04:19)
09. Nedostaješ Mi (04:11)
10. Nisam Više Tvoja (03:48)
11. Svašta Mi Pada Na Pamet (03:54)
12. Devotion (03:44)
13. So Sexy (Eric's Magic Touch RMX) (04:53)
14. Do Kraja (Pop RMX) (03:48)

Лог проверки качества

AUDIOCHECKER v2.0 beta (build 457) - by Dester - opdester@freemail.hu
~~~~~~~~~~~~~~~~~~~~~~~~~~~~~~~~~~

-----------------------------------------------------------

Started at: четверг, 13. 06. 2013. - 9:47.21
14 files found

01 -===- E:\04. Eurodance\Colonia\Colonia\2006 - Do Kraja\01. Do Kraja.flac
  Extracted successfully
  Conclusion: this track is CDDA with probability 100%
  Tempfile successfully deleted.

02 -===- E:\04. Eurodance\Colonia\Colonia\2006 - Do Kraja\02. Pogledom Me Skini.flac
  Extracted successfully
  Conclusion: this track is CDDA with probability 100%
  Tempfile successfully deleted.

03 -===- E:\04. Eurodance\Colonia\Colonia\2006 - Do Kraja\03. Oci U Oci.flac
  Extracted successfully
  Conclusion: this track is CDDA with probability 100%
  Tempfile successfully deleted.

04 -===- E:\04. Eurodance\Colonia\Colonia\2006 - Do Kraja\04. Tipicno Muski.flac
  Extracted successfully
  Conclusion: this track is CDDA with probability 100%
  Tempfile successfully deleted.

05 -===- E:\04. Eurodance\Colonia\Colonia\2006 - Do Kraja\05. Dvoje.flac
  Extracted successfully
  Conclusion: this track is CDDA with probability 100%
  Tempfile successfully deleted.

06 -===- E:\04. Eurodance\Colonia\Colonia\2006 - Do Kraja\06. Fjaka.flac
  Extracted successfully
  Conclusion: this track is CDDA with probability 100%
  Tempfile successfully deleted.

07 -===- E:\04. Eurodance\Colonia\Colonia\2006 - Do Kraja\07. Samo Da Si Tu.flac
  Extracted successfully
  Conclusion: this track is CDDA with probability 100%
  Tempfile successfully deleted.

08 -===- E:\04. Eurodance\Colonia\Colonia\2006 - Do Kraja\08. Party On!.flac
  Extracted successfully
  Conclusion: this track is CDDA with probability 100%
  Tempfile successfully deleted.

09 -===- E:\04. Eurodance\Colonia\Colonia\2006 - Do Kraja\09. Nedostajes Mi.flac
  Extracted successfully
  Conclusion: this track is CDDA with probability 100%
  Tempfile successfully deleted.

10 -===- E:\04. Eurodance\Colonia\Colonia\2006 - Do Kraja\10. Nisam Vise Tvoja.flac
  Extracted successfully
  Conclusion: this track is CDDA with probability 100%
  Tempfile successfully deleted.

11 -===- E:\04. Eurodance\Colonia\Colonia\2006 - Do Kraja\11. Svasta Mi Pada Na Pamet.flac
  Extracted successfully
  Conclusion: this track is CDDA with probability 100%
  Tempfile successfully deleted.

12 -===- E:\04. Eurodance\Colonia\Colonia\2006 - Do Kraja\12. Devotion.flac
  Extracted successfully
  Conclusion: this track is CDDA with probability 100%
  Tempfile successfully deleted.

13 -===- E:\04. Eurodance\Colonia\Colonia\2006 - Do Kraja\13. So Sexy (Eric's Magic Touch RMX).flac
  Extracted successfully
  Conclusion: this track is CDDA with probability 100%
  Tempfile successfully deleted.

14 -===- E:\04. Eurodance\Colonia\Colonia\2006 - Do Kraja\14. Do Kraja (Pop RMX).flac
  Extracted successfully
  Conclusion: this track is CDDA with probability 100%
  Tempfile successfully deleted.

Finished at: четверг, 13. 06. 2013. - 9:58.08 (operation time: 0:10.46)

2008 - Pod Sretnom Zvijezdom (Под счастливой звездой) [City Records ‎– CD 000 633]

http://i47.fastpic.ru/big/2013/0613/5a/e26d65413acbefa21f9a4593326f585a.jpg

Трэклист::

01. Pod Sretnom Zvijezdom (04:00)
02. Mirno More (03:38)
03. Suzo Moja (03:29)
04. Gukni Golube (feat. Slavonia Band) (03:25)
05. Ja Nisam Tvoja Mala (03:36)
06. Medene Usne (03:56)
07. Ostavi Trag (03:22)
08. Čovjek S 2 Lica (04:29)
09. Lagao Si Me (03:11)
10. Oči Anđela (03:32)
11. Sunčan Dan (04:30)
12. Nisi Ti Više Crno Vino 08 (03:28)
13. Sexy Body 08 (03:23)

Лог проверки качества

AUDIOCHECKER v2.0 beta (build 457) - by Dester - opdester@freemail.hu
~~~~~~~~~~~~~~~~~~~~~~~~~~~~~~~~~~

-----------------------------------------------------------

Started at: четверг, 13. 06. 2013. - 9:59.33
13 files found

01 -===- E:\04. Eurodance\Colonia\Colonia\2008 - Pod Sretnom Zvijezdom\01. Pod Sretnom Zvijezdom.flac
  Extracted successfully
  Conclusion: this track is CDDA with probability 100%
  Tempfile successfully deleted.

02 -===- E:\04. Eurodance\Colonia\Colonia\2008 - Pod Sretnom Zvijezdom\02. Mirno More.flac
  Extracted successfully
  Conclusion: this track is CDDA with probability 100%
  Tempfile successfully deleted.

03 -===- E:\04. Eurodance\Colonia\Colonia\2008 - Pod Sretnom Zvijezdom\03. Suzo Moja.flac
  Extracted successfully
  Conclusion: this track is CDDA with probability 100%
  Tempfile successfully deleted.

04 -===- E:\04. Eurodance\Colonia\Colonia\2008 - Pod Sretnom Zvijezdom\04. Gukni Golube (feat. Slavonia Band).flac
  Extracted successfully
  Conclusion: this track is CDDA with probability 100%
  Tempfile successfully deleted.

05 -===- E:\04. Eurodance\Colonia\Colonia\2008 - Pod Sretnom Zvijezdom\05. Ja Nisam Tvoja Mala.flac
  Extracted successfully
  Conclusion: this track is CDDA with probability 100%
  Tempfile successfully deleted.

06 -===- E:\04. Eurodance\Colonia\Colonia\2008 - Pod Sretnom Zvijezdom\06. Medene Usne.flac
  Extracted successfully
  Conclusion: this track is CDDA with probability 100%
  Tempfile successfully deleted.

07 -===- E:\04. Eurodance\Colonia\Colonia\2008 - Pod Sretnom Zvijezdom\07. Ostavi Trag.flac
  Extracted successfully
  Conclusion: this track is CDDA with probability 100%
  Tempfile successfully deleted.

08 -===- E:\04. Eurodance\Colonia\Colonia\2008 - Pod Sretnom Zvijezdom\08. Covjek S 2 Lica.flac
  Extracted successfully
  Conclusion: this track is CDDA with probability 100%
  Tempfile successfully deleted.

09 -===- E:\04. Eurodance\Colonia\Colonia\2008 - Pod Sretnom Zvijezdom\09. Lagao Si Me.flac
  Extracted successfully
  Conclusion: this track is CDDA with probability 100%
  Tempfile successfully deleted.

10 -===- E:\04. Eurodance\Colonia\Colonia\2008 - Pod Sretnom Zvijezdom\10. Oci Andela.flac
  Extracted successfully
  Conclusion: this track is CDDA with probability 100%
  Tempfile successfully deleted.

11 -===- E:\04. Eurodance\Colonia\Colonia\2008 - Pod Sretnom Zvijezdom\11. Suncan Dan.flac
  Extracted successfully
  Conclusion: this track is CDDA with probability 100%
  Tempfile successfully deleted.

12 -===- E:\04. Eurodance\Colonia\Colonia\2008 - Pod Sretnom Zvijezdom\12. Nisi Ti Vise Crno Vino 08.flac
  Extracted successfully
  Conclusion: this track is CDDA with probability 100%
  Tempfile successfully deleted.

13 -===- E:\04. Eurodance\Colonia\Colonia\2008 - Pod Sretnom Zvijezdom\13. Sexy Body 08.flac
  Extracted successfully
  Conclusion: this track is CDDA with probability 100%
  Tempfile successfully deleted.

Finished at: четверг, 13. 06. 2013. - 10:10.26 (operation time: 0:10.52)

2009 - Retroactive Early Years [Menart ‎– 385601092092]

http://i47.fastpic.ru/big/2013/0613/11/beb449faa5d5f31b7dccfd2ff5adf511.jpg

Трэклист::

01. Sve Oko Mene Je Grijeh (05:01)
02. Njeno Ime Ne Zovi U Snu (03:48)
03. Jača Nego Ikad (04:39)
04. Nek Vatre Gore Sve (03:40)
05. Ljubav Ne Stanuje Tu (03:58)
06. Kiša (04:23)
07. Vatra I Led (04:29)
08. Ti (03:35)
09. Laku Noć (03:32)
10. Red Light Zone (05:13)
11. Budi Mi Zbogom (04:13)
12. Lady Blue (03:35)
13. Deja Vu (03:16)

Лог проверки качества

AUDIOCHECKER v2.0 beta (build 457) - by Dester - opdester@freemail.hu
~~~~~~~~~~~~~~~~~~~~~~~~~~~~~~~~~~
-----------------------------------------------------------

Started at: четверг, 13. 06. 2013. - 10:12.55
13 files found

01 -===- E:\04. Eurodance\Colonia\Colonia\2009 - Retroactive Early Years\01. Sve Oko Mene Je Grijeh.flac
  Extracted successfully
  Conclusion: this track is CDDA with probability 100%
  Tempfile successfully deleted.

02 -===- E:\04. Eurodance\Colonia\Colonia\2009 - Retroactive Early Years\02. Njeno Ime Ne Zovi U Snu.flac
  Extracted successfully
  Conclusion: this track is CDDA with probability 100%
  Tempfile successfully deleted.

03 -===- E:\04. Eurodance\Colonia\Colonia\2009 - Retroactive Early Years\03. Jaca Nego Ikad.flac
  Extracted successfully
  Conclusion: this track is CDDA with probability 100%
  Tempfile successfully deleted.

04 -===- E:\04. Eurodance\Colonia\Colonia\2009 - Retroactive Early Years\04. Nek Vatre Gore Sve.flac
  Extracted successfully
  Conclusion: this track is CDDA with probability 99%
  Tempfile successfully deleted.

05 -===- E:\04. Eurodance\Colonia\Colonia\2009 - Retroactive Early Years\05. Ljubav Ne Stanuje Tu.flac
  Extracted successfully
  Conclusion: this track is CDDA with probability 100%
  Tempfile successfully deleted.

06 -===- E:\04. Eurodance\Colonia\Colonia\2009 - Retroactive Early Years\06. Kisa.flac
  Extracted successfully
  Conclusion: this track is CDDA with probability 99%
  Tempfile successfully deleted.

07 -===- E:\04. Eurodance\Colonia\Colonia\2009 - Retroactive Early Years\07. Vatra I Led.flac
  Extracted successfully
  Conclusion: this track is CDDA with probability 100%
  Tempfile successfully deleted.

08 -===- E:\04. Eurodance\Colonia\Colonia\2009 - Retroactive Early Years\08. Ti.flac
  Extracted successfully
  Conclusion: this track is CDDA with probability 100%
  Tempfile successfully deleted.

09 -===- E:\04. Eurodance\Colonia\Colonia\2009 - Retroactive Early Years\09. Laku Noc.flac
  Extracted successfully
  Conclusion: this track is CDDA with probability 100%
  Tempfile successfully deleted.

10 -===- E:\04. Eurodance\Colonia\Colonia\2009 - Retroactive Early Years\10. Red Light Zone.flac
  Extracted successfully
  Conclusion: this track is CDDA with probability 100%
  Tempfile successfully deleted.

11 -===- E:\04. Eurodance\Colonia\Colonia\2009 - Retroactive Early Years\11. Budi Mi Zbogom.flac
  Extracted successfully
  Conclusion: this track is CDDA with probability 100%
  Tempfile successfully deleted.

12 -===- E:\04. Eurodance\Colonia\Colonia\2009 - Retroactive Early Years\12. Lady Blue.flac
  Extracted successfully
  Conclusion: this track is CDDA with probability 100%
  Tempfile successfully deleted.

13 -===- E:\04. Eurodance\Colonia\Colonia\2009 - Retroactive Early Years\13. Deja Vu.flac
  Extracted successfully
  Conclusion: this track is CDDA with probability 100%
  Tempfile successfully deleted.

Finished at: четверг, 13. 06. 2013. - 10:24.58 (operation time: 0:12.02)

2010 - X (Десять) [MenArt ‎– 385601092362]

http://i46.fastpic.ru/big/2013/0613/46/1ba17bec21ac2795e90a9bbcd5088646.jpg

Трэклист::

01. Stranac (03:43)
02. Zavoli Me U Prolazu (03:44)
03. Nedodirljiva (03:26)
04. Poljubi Me Za Kraj (03:29)
05. Nisam Ti Jedina Ali Sam Ti Najbolja (02:58)
06. Jutro Moje Nema Boje (03:18)
07. Daj Mi 5 Minuta (03:40)
08. Kad Se Sretnu Stari Prijatelji (04:24)
09. Bijela Zastava (04:10)
10. Daj Daj (03:37)
11. Sjeti Se Ljeta (03:30)
12. Kosa Boje Kestena (03:35)
13. Ne Volim Rujan I Listopad (03:52)
14. Suvenir (03:39)
15. Lažu Oči Moje (03:28)

Лог проверки качества

AUDIOCHECKER v2.0 beta (build 457) - by Dester - opdester@freemail.hu
~~~~~~~~~~~~~~~~~~~~~~~~~~~~~~~~~~

-----------------------------------------------------------

Started at: четверг, 13. 06. 2013. - 10:26.28
15 files found

01 -===- E:\04. Eurodance\Colonia\Colonia\2010 - X  Deset\01. Stranac.flac
  Extracted successfully
  Conclusion: this track is CDDA with probability 100%
  Tempfile successfully deleted.

02 -===- E:\04. Eurodance\Colonia\Colonia\2010 - X  Deset\02. Zavoli Me U Prolazu.flac
  Extracted successfully
  Conclusion: this track is CDDA with probability 100%
  Tempfile successfully deleted.

03 -===- E:\04. Eurodance\Colonia\Colonia\2010 - X  Deset\03. Nedodirljiva.flac
  Extracted successfully
  Conclusion: this track is CDDA with probability 99%
  Tempfile successfully deleted.

04 -===- E:\04. Eurodance\Colonia\Colonia\2010 - X  Deset\04. Poljubi Me Za Kraj.flac
  Extracted successfully
  Conclusion: this track is CDDA with probability 100%
  Tempfile successfully deleted.

05 -===- E:\04. Eurodance\Colonia\Colonia\2010 - X  Deset\05. Nisam Ti Jedina Ali Sam Ti Najbolja.flac
  Extracted successfully
  Conclusion: this track is CDDA with probability 100%
  Tempfile successfully deleted.

06 -===- E:\04. Eurodance\Colonia\Colonia\2010 - X  Deset\06. Jutro Moje Nema Boje.flac
  Extracted successfully
  Conclusion: this track is CDDA with probability 100%
  Tempfile successfully deleted.

07 -===- E:\04. Eurodance\Colonia\Colonia\2010 - X  Deset\07. Daj Mi 5 Minuta.flac
  Extracted successfully
  Conclusion: this track is CDDA with probability 100%
  Tempfile successfully deleted.

08 -===- E:\04. Eurodance\Colonia\Colonia\2010 - X  Deset\08. Kad Se Sretnu Stari Prijatelji.flac
  Extracted successfully
  Conclusion: this track is CDDA with probability 99%
  Tempfile successfully deleted.

09 -===- E:\04. Eurodance\Colonia\Colonia\2010 - X  Deset\09. Bijela Zastava.flac
  Extracted successfully
  Conclusion: this track is CDDA with probability 100%
  Tempfile successfully deleted.

10 -===- E:\04. Eurodance\Colonia\Colonia\2010 - X  Deset\10. Daj Daj.flac
  Extracted successfully
  Conclusion: this track is CDDA with probability 99%
  Tempfile successfully deleted.

11 -===- E:\04. Eurodance\Colonia\Colonia\2010 - X  Deset\11. Sjeti Se Ljeta.flac
  Extracted successfully
  Conclusion: this track is CDDA with probability 100%
  Tempfile successfully deleted.

12 -===- E:\04. Eurodance\Colonia\Colonia\2010 - X  Deset\12. Kosa Boje Kestena.flac
  Extracted successfully
  Conclusion: this track is CDDA with probability 100%
  Tempfile successfully deleted.

13 -===- E:\04. Eurodance\Colonia\Colonia\2010 - X  Deset\13. Ne Volim Rujan I Listopad.flac
  Extracted successfully
  Conclusion: this track is CDDA with probability 100%
  Tempfile successfully deleted.

14 -===- E:\04. Eurodance\Colonia\Colonia\2010 - X  Deset\14. Suvenir.flac
  Extracted successfully
  Conclusion: this track is CDDA with probability 100%
  Tempfile successfully deleted.

15 -===- E:\04. Eurodance\Colonia\Colonia\2010 - X  Deset\15. Lazu Oci Moje.flac
  Extracted successfully
  Conclusion: this track is CDDA with probability 100%
  Tempfile successfully deleted.

Finished at: четверг, 13. 06. 2013. - 10:39.21 (operation time: 0:12.52)

3

MP3- 320 kbps

2002 - The Best Of Volume 1

http://i48.fastpic.ru/big/2013/0614/ee/ac63ce97f04f98fcda345498910682ee.jpeg

Трэклист::

01. Nek Vatre Gore Sve (03:47)
02. Sve Oko Mene Je Grijeh (04:50)
03. Vatra I Led (04:15)
04. Dio Nje (03:37)
05. Red Light Zone (04:09)
06. U Ritmu Ljubavi (02:50)
07. Lady Blue (03:41)
08. Ti (03:18)
09. Njeno Ime Ne Zovi U Snu (03:59)
10. Ljubav Ne Stanuje Tu (03:46)
11. Dok Je Tebe I Ljubavi (03:24)
12. Budi Mi Zbogom (04:08)
13. Deja Vu (03:38)
14. Ti Da Bu Di Bu Da (03:39)
15. Za Tvoje Snene Oci (04:38)
16. Svijet Voli Pobjednike (04:02)

2003 - Dolazi Oluja (Special Edition) (CD2)

http://i46.fastpic.ru/big/2013/0614/30/f7cf751d793e03daf1e9c644734ca230.jpeg

Трэклист::

01. C'est La Vie (Pop Carousel Mix) (03:25)
02. Plamen Od Ljubavi (Native Mix) (03:57)
03. Zima Je... (Alternative Radio Mix) (04:59)
04. Dolazi Oluja (Alternative Radio Mix) (04:10)
05. Oči Boje Meda (Alternative Radio Mix) (04:33)
06. Oči Boje Meda (Gregorian Instrumental Remix) (05:10)
07. Ljeto 80 I Neke (A Tribute To 80's Mix) (05:02)
08. Zadnji Let Za Pariz (1985 Remix) (04:56)
09. Oduzimaš Mi Dah (Acoustic Radio Remix) (03:36)
10. Za Tvoje Snene Oči (Special Korean Remix) (05:21)

2007 - Do Kraja (Limited Edition) (CD2)

http://i48.fastpic.ru/big/2013/0614/02/af1e8d0a958ab2ec008928938b484b02.jpeg

Трэклист::

01. Devotion [Club Remix] (06:35)
02. Samo Da Si Tu [Killer Remix] (04:27)
03. Dvoje [Special Vinyl Remix] (05:47)
04. Pogledom Me Skini [Quicklink Extended Electro Remix] (06:35)
05. Party On! [Eric Destler Party Remix] (05:02)
06. Do Kraja [Alchemea Remix] (06:44)
07. Nedostaješ Mi [Missing Soulful Remix] (06:04)
08. Tipično Muški [1986 Total Retro Remix] (05:16)

2008 - Pod Sretnom Zvijezdom (Limited Edition) (CD2)

http://i47.fastpic.ru/big/2013/0614/a2/1c38aec391b24c0796dd690df01453a2.jpeg

Трэклист::

01. Avantura Zove Me (03:42)
02. Ostavi Trag (Traces Remix) (05:25)
03. Oci Andjela (Eric Destler Galaxy Mix) (07:33)
04. Suzo Moja (Late Night Remix) (05:37)
05. Covjek Sa Dva Lica (The Badface Remix) (05:27)
06. Lagao Si Me (Alternative Remix) (05:16)
07. Tidabudibuda (7th Virus Remix) (04:42)
08. Ja Nisam Tvoja Mala (Special Dance Remix) (05:19)
09. Pod Sretnom Zvijezdom (Electrostar Remix) (04:34)
10. Pod Sretnom Zvijezdom (Special Oriental Remix) (03:46)
11. Avantura Zove Me (Club Remix) (05:12)
12. Avantura Zove Me (Bangkok Chill Remix) (04:52)
13. Mirno More (Pop Remix) (03:11)

2009 - Special Dance Edition

http://i48.fastpic.ru/big/2013/0614/b5/cef4027ea74298f3006b7c5aa79d2db5.jpeg

Трэклист::

01. Lažu Oči Moje HRF 2009 (03:27)
02. Budi Mi Zbogom 2009 (04:13)
03. Deja Vu 2009 (03:17)
04. Lady Blue 2009 (03:35)
05. Avantura Zove Me (03:42)
06. Pod Sretnom Zvijezdom (04:00)
07. Do Kraja (04:11)
08. Suzo Moja (Late Night RMX) (05:37)
09. Tidabudibuda (7th Virus RMX) (04:42)
10. Mirno More (Pop RMX) (03:11)
11. Ja Nisam Tvoja Mala (03:36)
12. Oči Anđela (03:32)
13. Lažu Oči Moje (Electro Summer Remix) (05:53)
14. Lažu Oči Moje (Summer Extended Remix) (04:58)
15. Lažu Oči Moje (Instrumental) (03:27)

2013 - Tvrdava

http://i48.fastpic.ru/big/2013/0614/03/349bf9d016cde0ffd45bb1cca29fd603.jpeg

Трэклист::

01. Tako Ti Je Mali Moj (03:43)
02. Laž Za Laž (04:01)
03. Anđele (03:25)
04. Kap Tvoje Ljubavi (03:56)
05. Srce Nikad Ne Laže (04:06)
06. Hladna Soba (03:39)
07. Barem Da Si Malo Moj (03:21)
08. Sretni Ljudi (03:47)
09. Gad (03:27)
10. Pusti Me Sad (03:39)
11. Tvrđava (03:40)
12. Dvije Žene (03:53)
13. Marioneta (06:13)
14. 1001 Noć (2013 Rework) (04:11)

4

Dok je tebe i ljubavi
[audio]http://www33.zippyshare.com/v/79955251/file.html[/audio]
Korak do sna
[audio]http://www16.zippyshare.com/v/68834354/file.html[/audio]

Пару хороших клипов


5

Thx

6

good!!TXS!!

7

Thx!


Вы здесь » Rapsody-Music » Eurodance, Boy Bands » Colonia