Rapsody-Music

Объявление

Информация о пользователе

Привет, Гость! Войдите или зарегистрируйтесь.


Вы здесь » Rapsody-Music » R&B, Soul » BOYZ II MEN / (Дискография [Часть 3 - Синглы])


BOYZ II MEN / (Дискография [Часть 3 - Синглы])

Сообщений 1 страница 2 из 2

1


BOYZ II MEN / (Дискография [Часть 3 - Синглы])


Часть 1 - Альбомы  Часть 2 - Сборники
http://i48.fastpic.ru/big/2013/0505/9f/395cc6c4f81b11d41c33acfb33f0599f.jpg



[audio]http://www73.zippyshare.com/v/99190586/file.html[/audio]
[audio]http://www10.zippyshare.com/v/51855666/file.html[/audio]
[audio]http://www20.zippyshare.com/v/50858747/file.html[/audio]
[audio]http://www44.zippyshare.com/v/54429220/file.html[/audio]


Скрытый текст:

Для просмотра скрытого текста - войдите или зарегистрируйтесь.

Как скачать - инструкция


1991 - Motownphilly (CD, Maxi-Single) (US, Motown, MOTDS-4779) - Mp3 - V0

http://i46.fastpic.ru/big/2013/0505/6a/b66f3f002b3fc9898331597fd659776a.jpg

Трэклист::

01. Motownphilly (12" Version [Edit]) (04:50)
02. Motownphilly (LP Version) (03:55)
03. Motownphilly (Quiet Storm) (04:08)
04. Motownphilly (12" A) (05:42)
05. Motownphilly (12" Dub) (04:07)

1991 - Motownphilly (Vinyl, 12'', Single) (US, Motown, MOT12-4779) - Mp3 - 320 kbps

http://i46.fastpic.ru/big/2013/0505/fc/7c9133265656824229f2f204d1b131fc.jpg

Трэклист::

01. Motownphilly (12" Version) (04:50)
02. Motownphilly (Instrumental) (05:44)
02. Motownphilly (LP Version) (03:55)

1992 - End Of The Road (CD, Maxi-Single) (EU, Motown, 860 065-2) - FLAC (tracks+.cue), lossless

http://i46.fastpic.ru/big/2013/0505/61/6421dc861355911a97357087a0268161.jpg

Трэклист::

01. End Of The Road (Pop Edit) (03:36)
02. End Of The Road (Radio Edit w/ Acapella End) (04:13)
03. End Of The Road (LP Version) (05:50)
04. End Of The Road (Instrumental) (05:15)

Лог проверки качества

AUDIOCHECKER v2.0 beta (build 457) - by Dester - opdester@freemail.hu
~~~~~~~~~~~~~~~~~~~~~~~~~~~~~~~~~~

Started at: tuesday, 22. 05. 2012. - 22:11.47
4 files found

1 -===- D:\Boyz II Men LOSSLESS\1992 - End Of The Road (CD, Maxi-Single) (EU, Motown, 860 065-2)\01. End Of The Road (Pop Edit).flac
  Extracted successfully
  Conclusion: this track is CDDA with probability 100%
  Tempfile successfully deleted.

2 -===- D:\Boyz II Men LOSSLESS\1992 - End Of The Road (CD, Maxi-Single) (EU, Motown, 860 065-2)\02. End Of The Road (Radio Edit W- Acapella End).flac
  Extracted successfully
  Conclusion: this track is CDDA with probability 100%
  Tempfile successfully deleted.

3 -===- D:\Boyz II Men LOSSLESS\1992 - End Of The Road (CD, Maxi-Single) (EU, Motown, 860 065-2)\03. End Of The Road (LP Version).flac
  Extracted successfully
  Conclusion: this track is CDDA with probability 100%
  Tempfile successfully deleted.

4 -===- D:\Boyz II Men LOSSLESS\1992 - End Of The Road (CD, Maxi-Single) (EU, Motown, 860 065-2)\04. End Of The Road (Instrumental Version).flac
  Extracted successfully
  Conclusion: this track is CDDA with probability 100%
  Tempfile successfully deleted.

Finished at: tuesday, 22. 05. 2012. - 22:16.14 (operation time: 0:04.26)

1992 - Sympin (Vinyl, 12'', Single) (US, Motown, 3746348231) - Mp3 - 224 kbps

http://i46.fastpic.ru/big/2013/0505/70/6a668c0c892498bd1e4d47bc8c7d3d70.jpg

Трэклист::

01. Sympin (Remix Radio Edit) (03:57)
02. Sympin (Remix Version) (04:55)
03. Sympin (Instrumental Version) (05:29)
04. Sympin (LP Version) (04:22)

1994 - On Bended Knee (EU, Motown – 860 259-2) - FLAC (tracks+.cue), lossless

http://i46.fastpic.ru/big/2013/0505/55/343f5fd4e61500e42211c8910f10db55.jpg

Трэклист::

01. On Bended Knee (Radio Edit) (04:35)
02. On Bended Knee (LP Version) (05:31)
03. End Of The Road (Pop Edit) (03:35)
04. Final Del Camino (End Of The Road, Spanish Version) (05:51)

Лог создания рипа

Exact Audio Copy V0.99 prebeta 5 from 4. May 2009

EAC extraction logfile from 3. May 2010, 19:16

Boyz II Men / On Bended Knee

Used drive  : ASUS    DVD-E616A2   Adapter: 0  ID: 0

Read mode               : Secure
Utilize accurate stream : Yes
Defeat audio cache      : Yes
Make use of C2 pointers : No

Read offset correction                      : 6
Overread into Lead-In and Lead-Out          : No
Fill up missing offset samples with silence : Yes
Delete leading and trailing silent blocks   : No
Null samples used in CRC calculations       : Yes
Used interface                              : Native Win32 interface for Win NT & 2000
Gap handling                                : Appended to previous track

Used output format              : User Defined Encoder
Selected bitrate                : 192 kBit/s
Quality                         : High
Add ID3 tag                     : No
Command line compressor         : C:\Program Files\FLAC\flac.exe
Additional command line options : -V -8 -T "artist=%a" -T "title=%t" -T "album=%g" -T "date=%y" -T "tracknumber=%n" -T "genre=%m" %s

TOC of the extracted CD

     Track |   Start  |  Length  | Start sector | End sector
    ---------------------------------------------------------
        1  |  0:00.32 |  4:35.35 |        32    |    20691   
        2  |  4:35.67 |  5:31.13 |     20692    |    45529   
        3  | 10:07.05 |  3:35.65 |     45530    |    61719   
        4  | 13:42.70 |  5:51.17 |     61720    |    88061   

Track  1

     Filename C:\eac\01 - Boyz II Men - On Bended Knee (Pop Edit).wav

     Pre-gap length  0:00:02.42

     Peak level 98.0 %
     Track quality 100.0 %
     Test CRC 6916E242
     Copy CRC 6916E242
     Track not present in AccurateRip database
     Copy OK

Track  2

     Filename C:\eac\02 - Boyz II Men - On Bended Knee (LP Version).wav

     Pre-gap length  0:00:00.66

     Peak level 98.0 %
     Track quality 100.0 %
     Test CRC 95088127
     Copy CRC 95088127
     Track not present in AccurateRip database
     Copy OK

Track  3

     Filename C:\eac\03 - Boyz II Men - End Of The Road (Pop Edit).wav

     Pre-gap length  0:00:00.66

     Peak level 98.0 %
     Track quality 99.9 %
     Test CRC 463829A6
     Copy CRC 463829A6
     Track not present in AccurateRip database
     Copy OK

Track  4

     Filename C:\eac\04 - Boyz II Men - Al Final Del Camino (End Of The Road) Spanish Version.wav

     Pre-gap length  0:00:00.66

     Peak level 98.0 %
     Track quality 100.0 %
     Test CRC 49A32126
     Copy CRC 49A32126
     Track not present in AccurateRip database
     Copy OK

None of the tracks are present in the AccurateRip database

No errors occurred

End of status report

1995 - LL Cool J - Hey Lover feat. Boyz II Men (CD, Maxi-Single) (US, Def Jam Recordings, 314 577 495-2) - Mp3 - 320 kbps

http://i46.fastpic.ru/big/2013/0505/44/96f2509a201b002e6764f61ddec66b44.jpg

Трэклист::

01. Hey Lover (Radio Edit) (04:03)
02. Hey Lover (Instrumental) (04:03)
03. I Shot Ya (Remix) (feat. Fat Joe/Foxy Brown/Keith Murray/Prodigy) (05:06)
04. Hey Lover (LP Version) (04:46)

1995 - Vibin' (Remixes) (Vinyl, 12'', Promo) (US, Motown, 374 631 350-1) - Mp3 - 192 kbps

http://i46.fastpic.ru/big/2013/0505/8f/9f501ad59c2a49b980d41efcf3d6078f.jpeg

Трэклист::

01. Vibin' (The New Flava #2) (feat. Busta Rhymes/Craig Mack/Method Man/Treach) (04:09)
02. Vibin' (The New Flava Instrumental) (04:43)
03. Vibin' (Southern Comfort Mix #2) (04:07)
04. Vibin' (Cool Summer Mellow Mix #2) (04:12)
05. Vibin' (Kenny "Smoove" Remix) (feat. 2 Ta Da Head/Eric Sermon/Keith Murray/Redman) (04:27)
06. Vibin' (Kenny "Smoove" A Capella) (feat. 2 Ta Da Head/Eric Sermon/Keith Murray/Redman) (04:19)
07. Vibin' (Kenny "Smoove" Instrumental) (04:15)

1995 - Vibin' (Remixes, CD, Single) (US, Motown, 422860407-2) - Mp3 - V0

http://i46.fastpic.ru/big/2013/0505/cb/1778f3e1f4d81953e18e8ea397cc96cb.jpg

Трэклист::

01. Vibin' (The New Flava) (feat. Busta Rhynes/Craig Mack/Method Man/Trech) (04:48)
02. Vibin' (Kenny "Smoove" Remix) (feat. 2 Ta Da Head/Eric Sermon/Keith Murray/Redman) (04:33)
03. Vibin' (Southern Comfort Mix) (04:41)
04. Vibin' (Cool Sumer Mellow Mix) (04:35)
05. Vibin' (LP Version) (04:28)

1995 - Water Runs Dry (CD, Maxi-Single) (US, Motown, 422 860 359-2) - Mp3 - V0

http://i46.fastpic.ru/big/2013/0505/0c/e3bb8fd22c1a632c37ab81ea3778850c.jpg

Трэклист::

01. Water Runs Dry (LP Version) (03:22)
02. Water Runs Dry (Mood Mix) (04:44)
03. Water Runs Dry (Strat Mix) (04:51)
04. Water Runs Dry (Groove Mix) (04:30)
05. Water Runs Dry (Bump Mix) (04:37)

1996 - Mariah Carey & Boyz II Men - One Sweet Day (CD, Maxi-Single) (US, Columbia, 44 78075) - Mp3 - 320 kbps

http://i46.fastpic.ru/big/2013/0505/a4/1f3cc72a402046a916a7a813172b93a4.jpg

Трэклист::

01. One Sweet Day (Album Version) (04:43)
02. One Sweet Day (Sweet A Cappella) (04:52)
03. One Sweet Day (A Cappella) (04:48)
04. One Sweet Day (Chucky's Remix) (04:51)
05. One Sweet Day (Live Version) (05:10)
06. Fantasy (Def Drums Mix) (03:58)

1997 - 4 Seasons Of Loneliness (CD, Single) (US, Motown, 422860684-8) - FLAC (tracks+.cue), lossless

http://i46.fastpic.ru/big/2013/0505/ca/53a0e91f0aeccbcaf0a7e61bc58b62ca.jpeg

Трэклист::

01. 4 Seasons Of Loneliness (LP Version) (04:54)
02. 4 Seasons Of Loneliness (BIIM Version) (05:30)

Лог создания рипа

Exact Audio Copy V1.0 beta 3 from 29. August 2011

EAC extraction logfile from 16. September 2012, 1:10

Boyz II Men / 4 Seasons of Loneliness

Used drive  : hp      DVD-RAM GH60L   Adapter: 0  ID: 0

Read mode               : Secure
Utilize accurate stream : Yes
Defeat audio cache      : Yes
Make use of C2 pointers : No

Read offset correction                      : 667
Overread into Lead-In and Lead-Out          : No
Fill up missing offset samples with silence : Yes
Delete leading and trailing silent blocks   : No
Null samples used in CRC calculations       : Yes
Used interface                              : Native Win32 interface for Win NT & 2000
Gap handling                                : Appended to previous track

Used output format              : User Defined Encoder
Selected bitrate                : 1024 kBit/s
Quality                         : High
Add ID3 tag                     : No
Command line compressor         : C:\Program Files (x86)\FLAC\flac.exe
Additional command line options : -8 -V -T "ARTIST=%artist%" -T "TITLE=%title%" -T "ALBUM=%albumtitle%" -T "DATE=%year%" -T "TRACKNUMBER=%tracknr%" -T "GENRE=%genre%" -T "PERFORMER=%albuminterpret%" -T "COMPOSER=%composer%" %haslyrics%--tag-from-file=LYRICS="%lyricsfile%"%haslyrics% -T "ALBUMARTIST=%albumartist%" -T "DISCNUMBER=%cdnumber%" -T "TOTALDISCS=%totalcds%" -T "TOTALTRACKS=%numtracks%" -T "COMMENT=%comment%" %source% -o %dest%

TOC of the extracted CD

     Track |   Start  |  Length  | Start sector | End sector
    ---------------------------------------------------------
        1  |  0:00.00 |  4:54.02 |         0    |    22051   
        2  |  4:54.02 |  5:30.63 |     22052    |    46864   

Track  1

     Filename K:\Working Group\01 4 Seasons of Loneliness (LP Version).wav

     Pre-gap length  0:00:02.00

     Peak level 98.8 %
     Extraction speed 1.7 X
     Track quality 100.0 %
     Test CRC 7D5C8B60
     Copy CRC 7D5C8B60
     Accurately ripped (confidence 5)  [C5EA113C]  (AR v1)
     Copy OK

Track  2

     Filename K:\Working Group\02 4 Seasons of Loneliness (BIIM Version).wav

     Pre-gap length  0:00:02.20

     Peak level 98.8 %
     Extraction speed 2.0 X
     Track quality 100.0 %
     Test CRC BDE79F4D
     Copy CRC BDE79F4D
     Accurately ripped (confidence 5)  [6288F5A6]  (AR v1)
     Copy OK

All tracks accurately ripped

No errors occurred

End of status report

---- CUETools DB Plugin V2.1.3

[CTDB TOCID: 58I7SePNjTF.IQfSmo00d0dAYYk-] found, Submit result: 58I7SePNjTF.IQfSmo00d0dAYYk- has been confirmed
[6cbc7ffc] (5/5) Accurately ripped

==== Log checksum F0C8A9293A860DD714B5493AB56DBB6464C377F610E8131669E1AC02E402B39B ====

1997 - A Song For Mama (US, Motown, 422860720-8) - FLAC (tracks+.cue), lossless

http://i47.fastpic.ru/big/2013/0505/b4/7d8f125ac650ae2f4360189b123158b4.jpg

Трэклист::

01. A Song For Mama (LP Version) (05:04)
02. A Song For Mama (Instrumental) (05:05)

Лог создания рипа

X Lossless Decoder version 20130127 (142.3)

XLD extraction logfile from 2013-03-10 23:28:29 -0500

Boyz II Men / A Song for Mama

Used drive : MATSHITA DVD-R   UJ-8A8 (revision HB14)
Media type : Pressed CD

Ripper mode             : XLD Secure Ripper
Disable audio cache     : OK for the drive with a cache less than 1375KiB
Make use of C2 pointers : NO
Read offset correction  : 102
Max retry count         : 20
Gap status              : Analyzed, Appended (except HTOA)

TOC of the extracted CD
     Track |   Start  |  Length  | Start sector | End sector
    ---------------------------------------------------------
        1  | 00:00:00 | 05:04:52 |         0    |    22851   
        2  | 05:04:52 | 05:04:70 |     22852    |    45721   

AccurateRip Summary (DiscID: 00010bde-0002ca57-0b026102)
    Track 01 : OK (v1, confidence 2/2)
    Track 02 : OK (v1, confidence 2/2)
        ->All tracks accurately ripped.

All Tracks
    Album gain               : -5.21 dB
    Peak                     : 0.986694
    Statistics
        Read error                           : 0
        Jitter error (maybe fixed)           : 0
        Retry sector count                   : 0
        Damaged sector count                 : 0

Track 01
    Filename : /Upload/Boyz II Men - A Song for Mama (1997) [FLAC]/01 - A Song for Mama [LP Version].flac
    Pre-gap length : 00:02:00

    Track gain               : -5.88 dB
    Peak                     : 0.986694
    CRC32 hash (test run)    : 2F1BEFB8
    CRC32 hash               : 2F1BEFB8
    CRC32 hash (skip zero)   : 73296664
    AccurateRip v1 signature : B5A38DED
    AccurateRip v2 signature : 03E4AA68
        ->Accurately ripped (v1, confidence 2/2)
    Statistics
        Read error                           : 0
        Jitter error (maybe fixed)           : 0
        Retry sector count                   : 0
        Damaged sector count                 : 0

Track 02
    Filename : /Upload/Boyz II Men - A Song for Mama (1997) [FLAC]/02 - A Song for Mama [Instrumental].flac
    Pre-gap length : 00:02:12

    Track gain               : -0.62 dB
    Peak                     : 0.967682
    CRC32 hash (test run)    : 3B75C4FA
    CRC32 hash               : 3B75C4FA
    CRC32 hash (skip zero)   : 9E5D529D
    AccurateRip v1 signature : C1BFDCC9
    AccurateRip v2 signature : 56B84269
        ->Accurately ripped (v1, confidence 2/2)
    Statistics
        Read error                           : 0
        Jitter error (maybe fixed)           : 0
        Retry sector count                   : 0
        Damaged sector count                 : 0

No errors occurred

End of status report

1997 - Can't Let Her Go (Remixes, CD, Promo) (US, Motown, 374633036-2) - Mp3 - V0

http://i46.fastpic.ru/big/2013/0505/03/cb4c0270a1d9e011f568c2a2ab004e03.jpg

Трэклист::

01. Can't Let Her Go (Timbaland Radio Edit) (04:09)
02. Can't Let Her Go (Cutee B. Radio Edit) (04:03)
03. Can't Let Her Go (LP Radio Edit) (04:10)
04. Can't Let Her Go (Timbaland Alternate Radio Edit) (03:26)

1998 - Can't Let Her Go (Promo VLS) (Motown, 860 773-1) - Mp3 - 192 kbps

http://i46.fastpic.ru/big/2013/0505/f6/2e3cb3bc1c8c21a129f0f7518763dcf6.jpeg

Трэклист::

01. Can't Let Her Go (Booya Extended Mix) (04:40)
02. Can't Let Her Go (Timbaland Mix) (05:07)
03. Can't Let Her Go (Cutee B Mix) (04:08)
04. Can't Let Her Go (Tuff Jam Mix) (06:09)

1998 - I Will Get There (US, Dreamworks Records – DRMDS-59018) - FLAC (tracks+.cue), lossless

http://i46.fastpic.ru/big/2013/0505/da/d348185bbf813d1eac66d3623d1e65da.jpg

Трэклист::

01. I Will Get There (Build Up Mix) (04:20)
02. I Will Get There (Lp Version) (04:24)
03. I Will Get There (A Cappella With Strings) (04:20)
04. I Will Get There (Instrumental) (04:22)

Лог создания рипа

Exact Audio Copy V0.99 prebeta 5 from 4. May 2009

EAC extraction logfile from 21. October 2009, 19:30

Boyz II Men / I Will Get There [CDS]

Used drive  : PHILIPS SPD2412T   Adapter: 0  ID: 1

Read mode               : Secure
Utilize accurate stream : Yes
Defeat audio cache      : Yes
Make use of C2 pointers : No

Read offset correction                      : 6
Overread into Lead-In and Lead-Out          : No
Fill up missing offset samples with silence : Yes
Delete leading and trailing silent blocks   : No
Null samples used in CRC calculations       : Yes
Used interface                              : Native Win32 interface for Win NT & 2000
Gap handling                                : Appended to previous track

Used output format              : User Defined Encoder
Selected bitrate                : 320 kBit/s
Quality                         : High
Add ID3 tag                     : No
Command line compressor         : C:\Programs\FLAC\flac.exe
Additional command line options : -V -8 -T "artist=%a" -T "title=%t" -T "album=%g" -T "date=%y" -T "tracknumber=%n" -T "genre=%m" %s

TOC of the extracted CD

     Track |   Start  |  Length  | Start sector | End sector
    ---------------------------------------------------------
        1  |  0:00.00 |  4:20.32 |         0    |    19531   
        2  |  4:20.32 |  4:24.08 |     19532    |    39339   
        3  |  8:44.40 |  4:20.00 |     39340    |    58839   
        4  | 13:04.40 |  4:22.12 |     58840    |    78501   

Track  1

     Filename C:\Users\Administrator\Desktop\Boyz II Men -  - I Will Get There [CDS]\01 - I Will Get There (Build Up Mix).wav

     Pre-gap length  0:00:02.00

     Peak level 100.0 %
     Track quality 100.0 %
     Test CRC C9443873
     Copy CRC C9443873
     Track not present in AccurateRip database
     Copy OK

Track  2

     Filename C:\Users\Administrator\Desktop\Boyz II Men -  - I Will Get There [CDS]\02 - I Will Get There (LP Version).wav

     Pre-gap length  0:00:02.38

     Peak level 100.0 %
     Track quality 100.0 %
     Test CRC 673DE2B1
     Copy CRC 673DE2B1
     Track not present in AccurateRip database
     Copy OK

Track  3

     Filename C:\Users\Administrator\Desktop\Boyz II Men -  - I Will Get There [CDS]\03 - I Will Get There (Acappella With Strings).wav

     Pre-gap length  0:00:01.82

     Peak level 100.0 %
     Track quality 99.9 %
     Test CRC 17A037B2
     Copy CRC 17A037B2
     Track not present in AccurateRip database
     Copy OK

Track  4

     Filename C:\Users\Administrator\Desktop\Boyz II Men -  - I Will Get There [CDS]\04 - I Will Get There (Instrumental).wav

     Pre-gap length  0:00:02.33

     Peak level 100.0 %
     Track quality 100.0 %
     Test CRC E89AA796
     Copy CRC E89AA796
     Track not present in AccurateRip database
     Copy OK

None of the tracks are present in the AccurateRip database

No errors occurred

End of status report

1998 - Your Home Is In My Heart (Stella's Love Theme) (CD, Maxi-Single) (GER, Flyte Tyme, MCD 49084) - Mp3 - 256 kbps

http://i46.fastpic.ru/big/2013/0505/95/b1ee1008f39dc7d9194be33bf6b06495.jpg

Трэклист::

01. Your Home Is In My Heart (Stella's Love Theme) (Single Edit) (04:01)
02. Your Home Is In My Heart (Stella's Love Theme) (Instrumental) (05:07)
03. Your Home Is In My Heart (Stella's Love Theme) (Acappella) (05:06)
04. Your Home Is In My Heart (Stella's Love Theme) (Album Version) (05:05)

1999 - So Amazing (The Hurricane) (Promo, Movie Single) (MCA, MCAR-25041-2) - Mp3 - 320 kbps

http://i46.fastpic.ru/big/2013/0505/17/c0d912ea6fb3207575d30511a6502017.jpg

Трэклист::

01. So Amazing (Radio Edit) (04:00)
02. So Amazing (Album Version) (04:25)

2002 - The Color Of Love (CDM) - Mp3 - 192 kbps

http://i46.fastpic.ru/big/2013/0505/af/cfd42ae998e126b4862ad29222cd10af.jpg

Трэклист::

01. The Color Of Love (Radio Edit) (04:37)
02. The Color Of Love (Instrumental) (04:42)
03. Suggested Call Out Research Hook 1 (00:16)
04. Suggested Call Out Research Hook 2 (00:13)

2004 - What You Won't Do For Love (CDS) - Mp3 - 192 kbps

http://i46.fastpic.ru/big/2013/0505/0d/30525f7023c9956ab41a67ba6d86e20d.jpg

Трэклист::

01. What You Won't Do For Love (No Rap) (03:26)
02. What You Won't Do For Love (feat. MC Lyte) (04:11)
03. Sara Smile (03:40)

2

end of the road, ill make love to you, on bended knee, water runs dry, 4 season of lonelyless, song for mama, doin just fine, the color of love are BEST !


Вы здесь » Rapsody-Music » R&B, Soul » BOYZ II MEN / (Дискография [Часть 3 - Синглы])