Rapsody-Music

Объявление

Информация о пользователе

Привет, Гость! Войдите или зарегистрируйтесь.


Вы здесь » Rapsody-Music » #Rap » B-Real (of Cypress Hill)


B-Real (of Cypress Hill)

Сообщений 1 страница 2 из 2

1

B-Real - Smoke 'n Mirrors (2009)
http://i66.fastpic.ru/big/2014/0813/ef/512211d314ca2d1b37d307a153c65cef.jpg
Источник (релизёр): what.cd (Massari)
[audio]http://www3.zippyshare.com/v/61888153/file.html[/audio]
01. Smoke N Mirrors featuring Bo Roc (04:55)
02. Gangsta music featuring Bo Roc (03:19)
03. Don't ya dare laugh featuring Xzibit & Young De (03:56)
04. Everything U want featuring Buckshot (03:29)
05. 6 minutes featuring Young De & Tekneek (03:40)
06. Psycho realm revolution featuring Sick Jacken (04:46)
07. Fire featuring Damian Marley (03:21)
08. 10 steps behind featuring Young De & Tekneek (04:42)
09. Get that dough featuring Babydoll Refresh (03:53)
10. Dr Hyphenstein featuring Snoop Dogg, Young De & Trace Midas (03:58)
11. Stack'n paper (04:22)
12. I life featuring Sen Dog & Male Verde (04:21)
13. Dude vs Homie (03:32)
14. When they hate you featuring Babyoll Refresh (03:29)
15. When were f***g featuring Too Short, Kurupt & Young De (04:22)

FLAC | 320 kbps

Отчёт EAC

Exact Audio Copy V0.99 prebeta 3 from 28. July 2007

EAC extraction logfile from 12. March 2009, 15:52

B Real / Smoke N Mirrors

Used drive  : HL-DT-STDVDRAM GH15F   Adapter: 3  ID: 3

Read mode               : Secure
Utilize accurate stream : Yes
Defeat audio cache      : Yes
Make use of C2 pointers : No

Read offset correction                      : 667
Overread into Lead-In and Lead-Out          : No
Fill up missing offset samples with silence : Yes
Delete leading and trailing silent blocks   : No
Null samples used in CRC calculations       : Yes
Used interface                              : Native Win32 interface for Win NT & 2000
Gap handling                                : Appended to previous track

Used output format              : User Defined Encoder
Selected bitrate                : 192 kBit/s
Quality                         : High
Add ID3 tag                     : No
Command line compressor         : C:\Program Files\Exact Audio Copy\Flac\flac.exe
Additional command line options : -8 -A tukey(0.25) -A gauss(0.1875) -b 4096 -V -T "artist=%a" -T "title=%t" -T "album=%g" -T "date=%y" -T "tracknumber=%n" -T "genre=%m" %s --sector-align

TOC of the extracted CD

     Track |   Start  |  Length  | Start sector | End sector
    ---------------------------------------------------------
        1  |  0:00.00 |  4:55.17 |         0    |    22141   
        2  |  4:55.17 |  3:19.01 |     22142    |    37067   
        3  |  8:14.18 |  3:56.60 |     37068    |    54827   
        4  | 12:11.03 |  3:29.01 |     54828    |    70503   
        5  | 15:40.04 |  3:40.57 |     70504    |    87060   
        6  | 19:20.61 |  4:46.02 |     87061    |   108512   
        7  | 24:06.63 |  3:21.24 |    108513    |   123611   
        8  | 27:28.12 |  4:42.23 |    123612    |   144784   
        9  | 32:10.35 |  3:53.01 |    144785    |   162260   
       10  | 36:03.36 |  3:58.65 |    162261    |   180175   
       11  | 40:02.26 |  4:22.14 |    180176    |   199839   
       12  | 44:24.40 |  4:21.15 |    199840    |   219429   
       13  | 48:45.55 |  3:32.37 |    219430    |   235366   
       14  | 52:18.17 |  3:29.34 |    235367    |   251075   
       15  | 55:47.51 |  4:22.44 |    251076    |   270769   

Track  1

     Filename D:\EAC rips\B Real - 2009 - Smoke N Mirrors\01 - Smoke N Mirrors featuring Bo Roc.wav

     Pre-gap length  0:00:02.00

     Peak level 100.0 %
     Track quality 100.0 %
     Test CRC D2F0981F
     Copy CRC D2F0981F
     Track not present in AccurateRip database
     Copy OK

Track  2

     Filename D:\EAC rips\B Real - 2009 - Smoke N Mirrors\02 - Gangsta music featuring Bo Roc.wav

     Peak level 99.9 %
     Track quality 100.0 %
     Test CRC BBAB2A98
     Copy CRC BBAB2A98
     Track not present in AccurateRip database
     Copy OK

Track  3

     Filename D:\EAC rips\B Real - 2009 - Smoke N Mirrors\03 - Don't ya dare laugh featuring Xzibit & Young De.wav

     Peak level 99.9 %
     Track quality 100.0 %
     Test CRC 26DD4ED8
     Copy CRC 26DD4ED8
     Track not present in AccurateRip database
     Copy OK

Track  4

     Filename D:\EAC rips\B Real - 2009 - Smoke N Mirrors\04 - Everything U want featuring Buckshot.wav

     Peak level 99.9 %
     Track quality 100.0 %
     Test CRC B0EC5441
     Copy CRC B0EC5441
     Track not present in AccurateRip database
     Copy OK

Track  5

     Filename D:\EAC rips\B Real - 2009 - Smoke N Mirrors\05 - 6 minutes featuring Young De & Tekneek.wav

     Peak level 99.9 %
     Track quality 100.0 %
     Test CRC 4AEBFA22
     Copy CRC 4AEBFA22
     Track not present in AccurateRip database
     Copy OK

Track  6

     Filename D:\EAC rips\B Real - 2009 - Smoke N Mirrors\06 - Psycho realm revolution featuring Sick Jacken.wav

     Peak level 99.9 %
     Track quality 100.0 %
     Test CRC AFDE0D1A
     Copy CRC AFDE0D1A
     Track not present in AccurateRip database
     Copy OK

Track  7

     Filename D:\EAC rips\B Real - 2009 - Smoke N Mirrors\07 - Fire featuring Damian Marley.wav

     Peak level 99.9 %
     Track quality 100.0 %
     Test CRC 3F11EB8A
     Copy CRC 3F11EB8A
     Track not present in AccurateRip database
     Copy OK

Track  8

     Filename D:\EAC rips\B Real - 2009 - Smoke N Mirrors\08 - 10 steps behind featuring Young De & Tekneek.wav

     Peak level 99.9 %
     Track quality 100.0 %
     Test CRC 2145290E
     Copy CRC 2145290E
     Track not present in AccurateRip database
     Copy OK

Track  9

     Filename D:\EAC rips\B Real - 2009 - Smoke N Mirrors\09 - Get that dough featuring Babydoll Refresh.wav

     Peak level 99.9 %
     Track quality 100.0 %
     Test CRC A87441A4
     Copy CRC A87441A4
     Track not present in AccurateRip database
     Copy OK

Track 10

     Filename D:\EAC rips\B Real - 2009 - Smoke N Mirrors\10 - Dr Hyphenstein featuring Snoop Dogg, Young De & Trace Midas.wav

     Peak level 99.9 %
     Track quality 100.0 %
     Test CRC 6FB7A120
     Copy CRC 6FB7A120
     Track not present in AccurateRip database
     Copy OK

Track 11

     Filename D:\EAC rips\B Real - 2009 - Smoke N Mirrors\11 - Stack'n paper.wav

     Peak level 99.9 %
     Track quality 100.0 %
     Test CRC 7DA52493
     Copy CRC 7DA52493
     Track not present in AccurateRip database
     Copy OK

Track 12

     Filename D:\EAC rips\B Real - 2009 - Smoke N Mirrors\12 - I life featuring Sen Dog & Male Verde.wav

     Peak level 99.9 %
     Track quality 100.0 %
     Test CRC 0300FA07
     Copy CRC 0300FA07
     Track not present in AccurateRip database
     Copy OK

Track 13

     Filename D:\EAC rips\B Real - 2009 - Smoke N Mirrors\13 - Dude vs Homie.wav

     Peak level 99.9 %
     Track quality 99.9 %
     Test CRC DD6D72C8
     Copy CRC DD6D72C8
     Track not present in AccurateRip database
     Copy OK

Track 14

     Filename D:\EAC rips\B Real - 2009 - Smoke N Mirrors\14 - When they hate you featuring Babyoll Refresh.wav

     Peak level 99.9 %
     Track quality 100.0 %
     Test CRC 4736C533
     Copy CRC 4736C533
     Track not present in AccurateRip database
     Copy OK

Track 15

     Filename D:\EAC rips\B Real - 2009 - Smoke N Mirrors\15 - When were fxxxg featuring Too Short, Kurupt & Young De.wav

     Peak level 99.9 %
     Track quality 100.0 %
     Test CRC 02DFFBFC
     Copy CRC 02DFFBFC
     Track not present in AccurateRip database
     Copy OK

None of the tracks are present in the AccurateRip database

No errors occurred

End of status report

2

B-Real – The Gunslinger Part II: Fist Full Of Dollars (2006) [320 kbps]
http://1.bp.blogspot.com/-NnDc-qxDRsY/UXa1D4pQBDI/AAAAAAAASxg/NjDm9WJ-Ats/s400/cover.jpg
01. The Gunslinger (Intro)
02. Fist Full Of Dollars
03. Body Something (feat. Alchemist)
04. The Take Over (feat. Willie Malo & O Brown)
05. The Hustle (feat. Trace Midas)
06. Drop That %*&# (feat. Willie Malo & Son Doobie)
07. Incredible
08. Listen To Me (feat. Willie Malo & Son Doobie)
09. Put On Your Vest (feat. Defari)
10. Breathe (feat. Crow)
11. L.A. Bangers
12. Teflon Killas (feat. Willie Malo)
13. The Set Up (feat. Willie Malo & O Brown)
14. Lay U Flat (feat. Proof)
15. U Can’t Win (feat. Outthere)
16. Phoenix
17. Flash Kharma (feat. Everlast)
18. Family Ties [Remix] (feat. Willie Malo, Son Doobie, Sen Dog, Slick Jack & Everlast)
19. Saturday Night (Remix)

Скрытый текст:

Для просмотра скрытого текста - войдите или зарегистрируйтесь.


Вы здесь » Rapsody-Music » #Rap » B-Real (of Cypress Hill)