Rapsody-Music

Объявление

Информация о пользователе

Привет, Гость! Войдите или зарегистрируйтесь.


Вы здесь » Rapsody-Music » Down Low » Down Low - The 4th Level (2001) + 4 Bonus [Unofficial Edition]


Down Low - The 4th Level (2001) + 4 Bonus [Unofficial Edition]

Сообщений 1 страница 20 из 20

1

Down Low - The 4th Level (2001) + 4 Bonus [Unofficial Edition] FLAC (tracks+cue+log 100%)
http://i63.fastpic.ru/big/2014/0629/a3/e17215c6741d9e859932cffcc28f94a3.jpg
Track list:
http://i64.fastpic.ru/big/2014/0629/20/9b7c83db93e68ae98c57a71166c35320.jpg

Скрытый текст:

Для просмотра скрытого текста - войдите или зарегистрируйтесь.

Скрытый текст:

Для просмотра скрытого текста - войдите или зарегистрируйтесь.

http://i64.fastpic.ru/big/2014/0629/c7/e99c02b37d4f45293f8f7733d37509c7.jpg

Отчёт EAC

Exact Audio Copy V1.0 beta 3 from 29. August 2011

EAC extraction logfile from 29. June 2014, 8:49

Down Low / The 4th Level

Used drive  : ASUS    DRW-24F1ST   a   Adapter: 0  ID: 0

Read mode               : Secure
Utilize accurate stream : Yes
Defeat audio cache      : Yes
Make use of C2 pointers : No

Read offset correction                      : 6
Overread into Lead-In and Lead-Out          : No
Fill up missing offset samples with silence : Yes
Delete leading and trailing silent blocks   : No
Null samples used in CRC calculations       : Yes
Used interface                              : Native Win32 interface for Win NT & 2000
Gap handling                                : Appended to previous track

Used output format : Internal WAV Routines
Sample format      : 44.100 Hz; 16 Bit; Stereo

TOC of the extracted CD

     Track |   Start  |  Length  | Start sector | End sector
    ---------------------------------------------------------
        1  |  0:00.00 |  1:21.32 |         0    |     6106   
        2  |  1:21.32 |  3:58.12 |      6107    |    23968   
        3  |  5:19.44 |  3:35.60 |     23969    |    40153   
        4  |  8:55.29 |  3:40.25 |     40154    |    56678   
        5  | 12:35.54 |  5:20.30 |     56679    |    80708   
        6  | 17:56.09 |  4:50.46 |     80709    |   102504   
        7  | 22:46.55 |  3:37.72 |    102505    |   118851   
        8  | 26:24.52 |  4:03.17 |    118852    |   137093   
        9  | 30:27.69 |  4:43.52 |    137094    |   158370   
       10  | 35:11.46 |  4:49.73 |    158371    |   180118   
       11  | 40:01.44 |  3:33.16 |    180119    |   196109   
       12  | 43:34.60 |  3:05.28 |    196110    |   210012   
       13  | 46:40.13 | 11:53.43 |    210013    |   263530   
       14  | 58:33.56 |  3:28.47 |    263531    |   279177   
       15  | 62:02.28 |  0:58.24 |    279178    |   283551   
       16  | 63:00.52 |  3:51.55 |    283552    |   300931   
       17  | 66:52.32 |  3:50.40 |    300932    |   318221   
       18  | 70:42.72 |  3:39.32 |    318222    |   334678   
       19  | 74:22.29 |  3:44.05 |    334679    |   351483   

Track  1

     Filename H:\01. Euro Rap\Down Low\Down Low - The 4th Level (2001)\01 Intro.wav

     Pre-gap length  0:00:02.00

     Peak level 98.8 %
     Extraction speed 1.5 X
     Track quality 100.0 %
     Test CRC 48BAE4B2
     Copy CRC 48BAE4B2
     Track not present in AccurateRip database
     Copy OK

Track  2

     Filename H:\01. Euro Rap\Down Low\Down Low - The 4th Level (2001)\02 Wouldn't It Be Good.wav

     Peak level 98.8 %
     Extraction speed 2.0 X
     Track quality 100.0 %
     Test CRC 963E3ADC
     Copy CRC 963E3ADC
     Track not present in AccurateRip database
     Copy OK

Track  3

     Filename H:\01. Euro Rap\Down Low\Down Low - The 4th Level (2001)\03 Don't You.wav

     Pre-gap length  0:00:02.00

     Peak level 98.3 %
     Extraction speed 1.8 X
     Track quality 99.9 %
     Test CRC D3E438D1
     Copy CRC D3E438D1
     Track not present in AccurateRip database
     Copy OK

Track  4

     Filename H:\01. Euro Rap\Down Low\Down Low - The 4th Level (2001)\04 La Serenissima.wav

     Pre-gap length  0:00:02.00

     Peak level 98.8 %
     Extraction speed 2.2 X
     Track quality 100.0 %
     Test CRC 5ABDE38F
     Copy CRC 5ABDE38F
     Track not present in AccurateRip database
     Copy OK

Track  5

     Filename H:\01. Euro Rap\Down Low\Down Low - The 4th Level (2001)\05 Stay.wav

     Pre-gap length  0:00:02.00

     Peak level 98.8 %
     Extraction speed 2.5 X
     Track quality 100.0 %
     Test CRC 78410E5A
     Copy CRC 78410E5A
     Track not present in AccurateRip database
     Copy OK

Track  6

     Filename H:\01. Euro Rap\Down Low\Down Low - The 4th Level (2001)\06 Tell Me.wav

     Pre-gap length  0:00:02.00

     Peak level 98.8 %
     Extraction speed 2.7 X
     Track quality 100.0 %
     Test CRC AA522869
     Copy CRC AA522869
     Track not present in AccurateRip database
     Copy OK

Track  7

     Filename H:\01. Euro Rap\Down Low\Down Low - The 4th Level (2001)\07 Another Day.wav

     Pre-gap length  0:00:02.00

     Peak level 98.8 %
     Extraction speed 2.7 X
     Track quality 100.0 %
     Test CRC 2B0D6B97
     Copy CRC 2B0D6B97
     Track not present in AccurateRip database
     Copy OK

Track  8

     Filename H:\01. Euro Rap\Down Low\Down Low - The 4th Level (2001)\08 Will I Ever Live Again.wav

     Pre-gap length  0:00:02.00

     Peak level 98.8 %
     Extraction speed 2.9 X
     Track quality 100.0 %
     Test CRC E506F9DA
     Copy CRC E506F9DA
     Track not present in AccurateRip database
     Copy OK

Track  9

     Filename H:\01. Euro Rap\Down Low\Down Low - The 4th Level (2001)\09 Evelasting Live.wav

     Pre-gap length  0:00:02.00

     Peak level 98.8 %
     Extraction speed 3.1 X
     Track quality 100.0 %
     Test CRC B6E39605
     Copy CRC B6E39605
     Track not present in AccurateRip database
     Copy OK

Track 10

     Filename H:\01. Euro Rap\Down Low\Down Low - The 4th Level (2001)\10 Can We Get It On.wav

     Pre-gap length  0:00:02.00

     Peak level 98.8 %
     Extraction speed 3.2 X
     Track quality 100.0 %
     Test CRC D14069A5
     Copy CRC D14069A5
     Track not present in AccurateRip database
     Copy OK

Track 11

     Filename H:\01. Euro Rap\Down Low\Down Low - The 4th Level (2001)\11 I Want You Back.wav

     Pre-gap length  0:00:02.00

     Peak level 98.8 %
     Extraction speed 3.2 X
     Track quality 100.0 %
     Test CRC 50FE0422
     Copy CRC 50FE0422
     Track not present in AccurateRip database
     Copy OK

Track 12

     Filename H:\01. Euro Rap\Down Low\Down Low - The 4th Level (2001)\12 You Don't How We Do.wav

     Pre-gap length  0:00:02.00

     Peak level 98.8 %
     Extraction speed 3.2 X
     Track quality 100.0 %
     Test CRC 9A6C7569
     Copy CRC 9A6C7569
     Track not present in AccurateRip database
     Copy OK

Track 13

     Filename H:\01. Euro Rap\Down Low\Down Low - The 4th Level (2001)\13 Bonus Track- Megamix.wav

     Pre-gap length  0:00:02.00

     Peak level 98.3 %
     Extraction speed 3.9 X
     Track quality 100.0 %
     Test CRC 55D66288
     Copy CRC 55D66288
     Track not present in AccurateRip database
     Copy OK

Track 14

     Filename H:\01. Euro Rap\Down Low\Down Low - The 4th Level (2001)\14 Never Again.wav

     Pre-gap length  0:00:02.00

     Peak level 98.8 %
     Extraction speed 3.6 X
     Track quality 100.0 %
     Test CRC 04230968
     Copy CRC 04230968
     Track not present in AccurateRip database
     Copy OK

Track 15

     Filename H:\01. Euro Rap\Down Low\Down Low - The 4th Level (2001)\15 Outro.wav

     Pre-gap length  0:00:02.00

     Peak level 98.8 %
     Extraction speed 2.6 X
     Track quality 100.0 %
     Test CRC C0B89703
     Copy CRC C0B89703
     Track not present in AccurateRip database
     Copy OK

Track 16

     Filename H:\01. Euro Rap\Down Low\Down Low - The 4th Level (2001)\16 Thank You.wav

     Pre-gap length  0:00:02.00

     Peak level 99.9 %
     Extraction speed 2.7 X
     Track quality 99.9 %
     Test CRC E2B51BB0
     Copy CRC E2B51BB0
     Track not present in AccurateRip database
     Copy OK

Track 17

     Filename H:\01. Euro Rap\Down Low\Down Low - The 4th Level (2001)\17 Don't Look Any Further.wav

     Pre-gap length  0:00:02.00

     Peak level 99.0 %
     Extraction speed 3.9 X
     Track quality 100.0 %
     Test CRC 8B19E22F
     Copy CRC 8B19E22F
     Track not present in AccurateRip database
     Copy OK

Track 18

     Filename H:\01. Euro Rap\Down Low\Down Low - The 4th Level (2001)\18 Hit Me Right.wav

     Pre-gap length  0:00:02.00

     Peak level 99.0 %
     Extraction speed 2.7 X
     Track quality 99.9 %
     Test CRC A0C9D2C6
     Copy CRC A0C9D2C6
     Track not present in AccurateRip database
     Copy OK

Track 19

     Filename H:\01. Euro Rap\Down Low\Down Low - The 4th Level (2001)\19 Yesterday.wav

     Pre-gap length  0:00:02.00

     Peak level 100.0 %
     Extraction speed 4.0 X
     Track quality 100.0 %
     Test CRC B0CBC90B
     Copy CRC B0CBC90B
     Track not present in AccurateRip database
     Copy OK

None of the tracks are present in the AccurateRip database

No errors occurred

End of status report

==== Log checksum 932356DD844A8CBDAC4EEA46572017EB13CB2330425ACEFCF6E494AFAF88EDD0 ====

Audiochecker log

AUDIOCHECKER v2.0 beta (build 457) - by Dester - opdester@freemail.hu
~~~~~~~~~~~~~~~~~~~~~~~~~~~~~~~~~~

-----------------------------------------------------------

Started at: воскресенье, 29. 06. 2014. - 8:54.27
19 files found

01 -===- H:\01. Euro Rap\Down Low\Down Low - The 4th Level (2001)\01 Intro.wav
  Conclusion: this track is CDDA with probability 99%

02 -===- H:\01. Euro Rap\Down Low\Down Low - The 4th Level (2001)\02 Wouldn't It Be Good.wav
  Conclusion: this track is CDDA with probability 100%

03 -===- H:\01. Euro Rap\Down Low\Down Low - The 4th Level (2001)\03 Don't You.wav
  Conclusion: this track is CDDA with probability 100%

04 -===- H:\01. Euro Rap\Down Low\Down Low - The 4th Level (2001)\04 La Serenissima.wav
  Conclusion: this track is CDDA with probability 100%

05 -===- H:\01. Euro Rap\Down Low\Down Low - The 4th Level (2001)\05 Stay.wav
  Conclusion: this track is CDDA with probability 100%

06 -===- H:\01. Euro Rap\Down Low\Down Low - The 4th Level (2001)\06 Tell Me.wav
  Conclusion: this track is CDDA with probability 100%

07 -===- H:\01. Euro Rap\Down Low\Down Low - The 4th Level (2001)\07 Another Day.wav
  Conclusion: this track is CDDA with probability 100%

08 -===- H:\01. Euro Rap\Down Low\Down Low - The 4th Level (2001)\08 Will I Ever Live Again.wav
  Conclusion: this track is CDDA with probability 100%

09 -===- H:\01. Euro Rap\Down Low\Down Low - The 4th Level (2001)\09 Evelasting Live.wav
  Conclusion: this track is CDDA with probability 99%

10 -===- H:\01. Euro Rap\Down Low\Down Low - The 4th Level (2001)\10 Can We Get It On.wav
  Conclusion: this track is CDDA with probability 100%

11 -===- H:\01. Euro Rap\Down Low\Down Low - The 4th Level (2001)\11 I Want You Back.wav
  Conclusion: this track is CDDA with probability 100%

12 -===- H:\01. Euro Rap\Down Low\Down Low - The 4th Level (2001)\12 You Don't How We Do.wav
  Conclusion: this track is CDDA with probability 100%

13 -===- H:\01. Euro Rap\Down Low\Down Low - The 4th Level (2001)\13 Bonus Track- Megamix.wav
  Conclusion: this track is CDDA with probability 100%

14 -===- H:\01. Euro Rap\Down Low\Down Low - The 4th Level (2001)\14 Never Again.wav
  Conclusion: this track is CDDA with probability 100%

15 -===- H:\01. Euro Rap\Down Low\Down Low - The 4th Level (2001)\15 Outro.wav
  Conclusion: this track is CDDA with probability 99%

16 -===- H:\01. Euro Rap\Down Low\Down Low - The 4th Level (2001)\16 Thank You.wav
  Conclusion: this track is CDDA with probability 100%

17 -===- H:\01. Euro Rap\Down Low\Down Low - The 4th Level (2001)\17 Don't Look Any Further.wav
  Conclusion: this track is CDDA with probability 100%

18 -===- H:\01. Euro Rap\Down Low\Down Low - The 4th Level (2001)\18 Hit Me Right.wav
  Conclusion: this track is CDDA with probability 100%

19 -===- H:\01. Euro Rap\Down Low\Down Low - The 4th Level (2001)\19 Yesterday.wav
  Conclusion: this track is CDDA with probability 100%

Finished at: воскресенье, 29. 06. 2014. - 8:56.57 (operation time: 0:02.30)

2

Вот таким впервые я увидел альбом The 4th Level,  рип мой, диск покупал в 2001 году, диск пиратский, но тогда апконвертов из mp3 не было ещё, здесь 100 % lossless.

Треков 19, только пираты ошиблись с нумерацией, там 2 раза № 13 на обложке.

3

У меня точно такой же лежит...
Тоже ошибка в треке.

4

Спасибо. Давно хотел послушать данный альбом в 100%-ом качестве)

Скрытый текст:

Для просмотра скрытого текста - войдите или зарегистрируйтесь.

Отредактировано brother_bear_k (29.06.2014 20:24)

5

brother_bear_k написал(а):

Спасибо. Давно хотел послушать данный альбом в 100%-ом качестве)

Да, вот не сдержался, просто приятно сделать рип и выложить старый добрый диск, который я когда то купил, включил точно помню, очень понравилось начало, и потом первый трек как начался, точно помню звал сестру что бы послушала какая новая песня хорошая.
Да и вроде в FLAC не заливали, как раз заодно пригодится кому FLAC нужен.

6

Скрытый текст:

Для просмотра скрытого текста - войдите или зарегистрируйтесь.

У меня работает как и всё остальное.

7

Вот ссылка на видео где я слушаю - http://www13.zippyshare.com/v/39673456/file.html

8

оххххххх вот это вещь!))) http://forumstatic.ru/files/0012/46/05/79416.gif

9

Schwarzenegger написал(а):

У меня работает как и всё остальное.

У меня на вкладке пишет "Хостинг файлов We..." (это сейчас), но само окно не грузится :(

Отредактировано brother_bear_k (29.06.2014 21:18)

10

А у меня облоги на диске без цветочков этих дурацких и без бонус трэков версия та, что у меня. Но походу тоже пиратка

11

brother_bear_k написал(а):

Schwarzenegger написал(а):

    У меня работает как и всё остальное.

У меня на вкладке пишет "Хостинг файлов We..." (это сейчас), но само окно не грузится :(


А, ты скачать не можешь, я опять не правильно понял, я думал ты скачал и файлы не открываются, да это с обменником проблемы какие то, всё как всегда не надёжное.

12

Там же не было бонусов.

13

У меня на пиратской кассете бонусом был мегамикс)

14

и у меня был такой диск, но потерял где-то при переезде. спасибо но ссылка битая - "Запрашиваемый файл не найден"

15

Ulik написал(а):

Там же не было бонусов.

Ну так это же пиратский диск, у пиратов было модно добавлять треки.

brother_bear_k
NazarCo
Перезалил на обменник который самый надёжный на данный момент.

16

Schwarzenegger написал(а):

Перезалил на обменник который самый надёжный на данный момент.

Спасибо, дружище! http://forumstatic.ru/files/0012/46/05/91509.gif

17

спасибо за оперативность!

18

Ни у кого нет истории создания данного альбома? В последние дни слушаю песенки с этого альбома... на обложке же Майк и Джо? Правильно? А вот в некоторых треках голос явно ЛаМаззовский! Наводит к мысли о том, что сперва Дэлиен отказывался воссоединяться в DL, а потом (может, после нескольких успешных синглов) решил "голосить" снова в группе. К этой мысли наводит ещё и то обстоятельство, что в записи следующего альбома Майк не принимал (или почти не принимал) участия. Или же в последствие Майкл мог отказаться от записи: его место занял ЛаМазз...

Скрытый текст:

Для просмотра скрытого текста - войдите или зарегистрируйтесь.

19

brother_bear_k написал(а):

Ни у кого нет истории создания данного альбома? В последние дни слушаю песенки с этого альбома... на обложке же Майк и Джо? Правильно? А вот в некоторых треках голос явно ЛаМаззовский! Наводит к мысли о том, что сперва Дэлиен отказывался воссоединяться в DL, а потом (может, после нескольких успешных синглов) решил "голосить" снова в группе. К этой мысли наводит ещё и то обстоятельство, что в записи следующего альбома Майк не принимал (или почти не принимал) участия. Или же в последствие Майкл мог отказаться от записи: его место занял ЛаМазз...

По-моему, в этом альбоме ЛаМазз только в одной песне Wouldn't It Be Good спел!?

20

Thompson написал(а):

По-моему, в этом альбоме ЛаМазз только в одной песне Wouldn't It Be Good спел!?

Сейчас не припомню, но вроде бы не только там ;)


Вы здесь » Rapsody-Music » Down Low » Down Low - The 4th Level (2001) + 4 Bonus [Unofficial Edition]