Новая работа легендарного
мастера слова.


A.K.-S.W.I.F.T.
при участии Rochest


Player Code

прослушать / купить:

Rapsody-Music

Объявление

Информация о пользователе

Привет, Гость! Войдите или зарегистрируйтесь.


Вы здесь » Rapsody-Music » Международный Еврорэп » Stomy Bugsy - Quelques Balles De Plus Pour... Le Calibre Qu'il Te Faut


Stomy Bugsy - Quelques Balles De Plus Pour... Le Calibre Qu'il Te Faut

Сообщений 1 страница 3 из 3

1

Stomy Bugsy - Quelques Balles De Plus Pour... Le Calibre Qu'il Te Faut (1998) FLAC (tracks+cue)

http://i70.fastpic.ru/big/2016/0617/3a/143c11ad08bc3159b10927763048ca3a.jpg

J'prie Dieu
[audio]http://www50.zippyshare.com/v/jSDDqoDV/file.html[/audio]
Mon Papa A Moi Est Un Gangster (Mon Papa A Moi Remix)
[audio]http://www50.zippyshare.com/v/xy7k5nid/file.html[/audio]
Gangster D'amour
[audio]http://www50.zippyshare.com/v/oaccyVa1/file.html[/audio]

01. Quand Bugsy Et Son Gang Dégomment (Feat. Arsenik, Neg' Marrons, Hamed Daye) (05:43)
02. J'prie Dieu (04:48)
03. Les Balances (Feat. Passi, Hamed Daye) (05:18)
04. Mes Forces Décuplent Quand On M'inculpe (Feat. Assia) (Cavale Mix) (04:07)
05. Gangster D'amour (04:19)
06. Oyé Sapapaya (Feat. Doc Gyneco) (05:34)
07. Wohs Nipal (Feat. Les Rongeurs, Les Novices Du Vice, Djamatik) (04:27)
08. Voilà C'que J't'avais Dit (06:13)
09. Mon Papa À Moi Est Un Gangster (Mon Papa À Moi Remix) (04:55)
10. La Vie C'est Comme Çà (04:31)
11. Brève Évasion (05:21)
12. J'avance Pour Ma Familia (Feat. Arsenik, La Clinique, La Rumeur, Hamed Daye, 'Voix De Basse', Passi) (05:45)
13. Derniers Pas Dans La Mafia (Feat. Akhenaton) (05:35)
14. Un Rep Qui Fait Reup (Feat. Hamed Daye, Passi, Oxmo Puccino, Pit Baccardi, Arsenik, Hifi) (06:52)

LOG

Exact Audio Copy V0.99 prebeta 4 from 23. January 2008

EAC extraction logfile from 23. July 2008, 14:33

Stomy Bugsy / Quelques Balles De Plus Pour... Le Calibre Qu'il Te Faut

Used drive  : HL-DT-STDVDRAM GH20NS10   Adapter: 3  ID: 0

Read mode               : Secure
Utilize accurate stream : Yes
Defeat audio cache      : Yes
Make use of C2 pointers : No

Read offset correction                      : 667
Overread into Lead-In and Lead-Out          : No
Fill up missing offset samples with silence : Yes
Delete leading and trailing silent blocks   : No
Null samples used in CRC calculations       : Yes
Used interface                              : Native Win32 interface for Win NT & 2000
Gap handling                                : Appended to previous track

Used output format              : User Defined Encoder
Selected bitrate                : 768 kBit/s
Quality                         : High
Add ID3 tag                     : No
Command line compressor         : C:\Program Files\FLAC\flac.exe
Additional command line options : -V -8 -T "artist=%a" -T "title=%t" -T "album=%g" -T "date=%y" -T "tracknumber=%n" %s

TOC of the extracted CD

     Track |   Start  |  Length  | Start sector | End sector
    ---------------------------------------------------------
        1  |  0:00.00 |  5:43.67 |         0    |    25791   
        2  |  5:43.67 |  4:48.45 |     25792    |    47436   
        3  | 10:32.37 |  5:18.63 |     47437    |    71349   
        4  | 15:51.25 |  4:07.50 |     71350    |    89924   
        5  | 19:59.00 |  4:19.20 |     89925    |   109369   
        6  | 24:18.20 |  5:34.47 |    109370    |   134466   
        7  | 29:52.67 |  4:27.20 |    134467    |   154511   
        8  | 34:20.12 |  6:13.65 |    154512    |   182551   
        9  | 40:34.02 |  4:55.38 |    182552    |   204714   
       10  | 45:29.40 |  4:31.02 |    204715    |   225041   
       11  | 50:00.42 |  5:21.73 |    225042    |   249189   
       12  | 55:22.40 |  5:45.45 |    249190    |   275109   
       13  | 61:08.10 |  5:35.00 |    275110    |   300234   
       14  | 66:43.10 |  6:52.10 |    300235    |   331144   

Track  1

     Filename C:\Hi there RIAA, What's up IFPI\Stomy Bugsy - Quelques Balles De Plus Pour... Le Calibre Qu'il Te Faut\01 - Quand Bugsy Et Son Gang Dйgomment (Feat. Arsenik, Neg' Marrons, Hamed Daye).wav

     Pre-gap length  0:00:02.00

     Peak level 100.0 %
     Track quality 100.0 %
     Test CRC AF170A0C
     Copy CRC AF170A0C
     Track not present in AccurateRip database
     Copy OK

Track  2

     Filename C:\Hi there RIAA, What's up IFPI\Stomy Bugsy - Quelques Balles De Plus Pour... Le Calibre Qu'il Te Faut\02 - J'prie Dieu.wav

     Peak level 100.0 %
     Track quality 100.0 %
     Test CRC A08AEA79
     Copy CRC A08AEA79
     Track not present in AccurateRip database
     Copy OK

Track  3

     Filename C:\Hi there RIAA, What's up IFPI\Stomy Bugsy - Quelques Balles De Plus Pour... Le Calibre Qu'il Te Faut\03 - Les Balances (Feat. Passi, Hamed Daye).wav

     Peak level 100.0 %
     Track quality 100.0 %
     Test CRC BA64E021
     Copy CRC BA64E021
     Track not present in AccurateRip database
     Copy OK

Track  4

     Filename C:\Hi there RIAA, What's up IFPI\Stomy Bugsy - Quelques Balles De Plus Pour... Le Calibre Qu'il Te Faut\04 - Mes Forces Dйcuplent Quand On M'inculpe (Feat. Assia) (Cavale Mix).wav

     Peak level 100.0 %
     Track quality 100.0 %
     Test CRC C0197DE4
     Copy CRC C0197DE4
     Track not present in AccurateRip database
     Copy OK

Track  5

     Filename C:\Hi there RIAA, What's up IFPI\Stomy Bugsy - Quelques Balles De Plus Pour... Le Calibre Qu'il Te Faut\05 - Gangster D'amour.wav

     Peak level 100.0 %
     Track quality 100.0 %
     Test CRC B2E96C01
     Copy CRC B2E96C01
     Track not present in AccurateRip database
     Copy OK

Track  6

     Filename C:\Hi there RIAA, What's up IFPI\Stomy Bugsy - Quelques Balles De Plus Pour... Le Calibre Qu'il Te Faut\06 - Oyй Sapapaya (Feat. Doc Gyneco).wav

     Pre-gap length  0:00:00.44

     Peak level 100.0 %
     Track quality 100.0 %
     Test CRC C6A06F19
     Copy CRC C6A06F19
     Track not present in AccurateRip database
     Copy OK

Track  7

     Filename C:\Hi there RIAA, What's up IFPI\Stomy Bugsy - Quelques Balles De Plus Pour... Le Calibre Qu'il Te Faut\07 - Wohs Nipal (Feat. Les Rongeurs, Les Novices Du Vice, Djamatik).wav

     Peak level 100.0 %
     Track quality 100.0 %
     Test CRC B80B3ECF
     Copy CRC B80B3ECF
     Track not present in AccurateRip database
     Copy OK

Track  8

     Filename C:\Hi there RIAA, What's up IFPI\Stomy Bugsy - Quelques Balles De Plus Pour... Le Calibre Qu'il Te Faut\08 - Voilа C'que J't'avais Dit.wav

     Peak level 100.0 %
     Track quality 100.0 %
     Test CRC 07C23BF0
     Copy CRC 07C23BF0
     Track not present in AccurateRip database
     Copy OK

Track  9

     Filename C:\Hi there RIAA, What's up IFPI\Stomy Bugsy - Quelques Balles De Plus Pour... Le Calibre Qu'il Te Faut\09 - Mon Papa А Moi Est Un Gangster (Mon Papa А Moi Remix).wav

     Peak level 100.0 %
     Track quality 99.9 %
     Test CRC A3D73DFA
     Copy CRC A3D73DFA
     Track not present in AccurateRip database
     Copy OK

Track 10

     Filename C:\Hi there RIAA, What's up IFPI\Stomy Bugsy - Quelques Balles De Plus Pour... Le Calibre Qu'il Te Faut\10 - La Vie C'est Comme За.wav

     Peak level 100.0 %
     Track quality 100.0 %
     Test CRC CB74BF17
     Copy CRC CB74BF17
     Track not present in AccurateRip database
     Copy OK

Track 11

     Filename C:\Hi there RIAA, What's up IFPI\Stomy Bugsy - Quelques Balles De Plus Pour... Le Calibre Qu'il Te Faut\11 - Brиve Йvasion.wav

     Peak level 100.0 %
     Track quality 100.0 %
     Test CRC D2E9FBD5
     Copy CRC D2E9FBD5
     Track not present in AccurateRip database
     Copy OK

Track 12

     Filename C:\Hi there RIAA, What's up IFPI\Stomy Bugsy - Quelques Balles De Plus Pour... Le Calibre Qu'il Te Faut\12 - J'avance Pour Ma Familia (Feat. Arsenik, La Clinique, La Rumeur, Hamed Daye, 'Voix De Basse', Passi).wav

     Peak level 100.0 %
     Track quality 100.0 %
     Test CRC E7695646
     Copy CRC E7695646
     Track not present in AccurateRip database
     Copy OK

Track 13

     Filename C:\Hi there RIAA, What's up IFPI\Stomy Bugsy - Quelques Balles De Plus Pour... Le Calibre Qu'il Te Faut\13 - Derniers Pas Dans La Mafia (Feat. Akhenaton).wav

     Peak level 100.0 %
     Track quality 100.0 %
     Test CRC 08B1A954
     Copy CRC 08B1A954
     Track not present in AccurateRip database
     Copy OK

Track 14

     Filename C:\Hi there RIAA, What's up IFPI\Stomy Bugsy - Quelques Balles De Plus Pour... Le Calibre Qu'il Te Faut\14 - Un Rep Qui Fait Reup (Feat. Hamed Daye, Passi, Oxmo Puccino, Pit Baccardi, Arsenik, Hifi).wav

     Pre-gap length  0:00:00.44

     Peak level 100.0 %
     Track quality 100.0 %
     Test CRC 0600126A
     Copy CRC 0600126A
     Track not present in AccurateRip database
     Copy OK

None of the tracks are present in the AccurateRip database

No errors occurred

End of status report

http://i80.fastpic.ru/big/2016/0614/3d/2f54b5e839e042a580db996f98c45e3d.png

2

Не смог загрузить(
Пишет про ошибку.

3

Да. У меня тоже с ошибкой


Вы здесь » Rapsody-Music » Международный Еврорэп » Stomy Bugsy - Quelques Balles De Plus Pour... Le Calibre Qu'il Te Faut


Создать форум © iboard.ws