Новая работа легендарного
мастера слова.


A.K.-S.W.I.F.T.
при участии Rochest


Player Code

прослушать / купить:

Rapsody-Music

Объявление

Информация о пользователе

Привет, Гость! Войдите или зарегистрируйтесь.


Вы здесь » Rapsody-Music » Международный Еврорэп » Drunken Tiger - 1945 해방 (2005)


Drunken Tiger - 1945 해방 (2005)

Сообщений 1 страница 5 из 5

1

Drunken Tiger - 1945 해방 (2005) FLAC

01 - 음주 Rapping (취중푸념) feat. YDG
[audio]http://www72.zippyshare.com/v/t1XaZB1F/file.html[/audio]
02 - Body, Body (깨달음의 작은 비밀) feat.Chorus T (03:53)
[audio]http://www31.zippyshare.com/v/IuGeMUgI/file.html[/audio]

01 - 음주 Rapping (취중푸념) feat. YDG (03:25)
02 - Body, Body (깨달음의 작은 비밀) feat.Chorus T (03:53)
03 - 죽지 않는 영혼 (Found you) feat. T (05:03)
04 - 소외된 모두, 왼발을 한보 앞으로! feat. T, Dynamic Duo (03:20)
05 - 우주 (I Got You) feat. YDG (03:44)
06 - 진정한 美는 마음 안에 (03:39)
07 - 관객모독 (꿈) - YDG skit (00:53)
08 - 60 Percenta Zen (02:36)
09 - 심의에 안 걸리는 사랑 노래 feat. T (03:49)
10 - 핸즈인디 A여! (Liquor shots II) feat. Bizzy (03:11)
11 - 관객모독 (현실) - YDG skit (01:35)
12 - 손들어! (Here!) feat. YDG, Bizzy (04:40)
13 - 오! 1945 (타임머신) (08:07)

log

Exact Audio Copy V1.0 beta 3 from 29. August 2011

EAC extraction logfile from 16. January 2014, 10:37

Drunken Tiger / 1945 해방

Used drive  : TSSTcorpDVD+-RW SU-208CB   Adapter: 0  ID: 0

Read mode               : Secure
Utilize accurate stream : Yes
Defeat audio cache      : Yes
Make use of C2 pointers : No

Read offset correction                      : 6
Overread into Lead-In and Lead-Out          : No
Fill up missing offset samples with silence : Yes
Delete leading and trailing silent blocks   : No
Null samples used in CRC calculations       : Yes
Used interface                              : Native Win32 interface for Win NT & 2000
Gap handling                                : Appended to previous track

Used output format              : User Defined Encoder
Selected bitrate                : 1024 kBit/s
Quality                         : High
Add ID3 tag                     : No
Command line compressor         : C:\Program Files (x86)\Exact Audio Copy\Flac\flac.exe
Additional command line options : -8 -V -T "artist=%artist%" -T "title=%title%" -T "album=%albumtitle%" -T "date=%year%" -T "tracknumber=%tracknr%" -T "genre=%genre%" %source%

TOC of the extracted CD

     Track |   Start  |  Length  | Start sector | End sector
    ---------------------------------------------------------
        1  |  0:00.00 |  3:25.00 |         0    |    15374   
        2  |  3:25.00 |  3:53.10 |     15375    |    32859   
        3  |  7:18.10 |  5:03.47 |     32860    |    55631   
        4  | 12:21.57 |  3:20.58 |     55632    |    70689   
        5  | 15:42.40 |  3:44.22 |     70690    |    87511   
        6  | 19:26.62 |  3:39.08 |     87512    |   103944   
        7  | 23:05.70 |  0:53.35 |    103945    |   107954   
        8  | 23:59.30 |  2:36.33 |    107955    |   119687   
        9  | 26:35.63 |  3:49.55 |    119688    |   136917   
       10  | 30:25.43 |  3:11.04 |    136918    |   151246   
       11  | 33:36.47 |  1:35.56 |    151247    |   158427   
       12  | 35:12.28 |  4:40.16 |    158428    |   179443   
       13  | 39:52.44 |  8:07.28 |    179444    |   215996   

Track  1

     Filename C:\EACRips\Drunken Tiger - 1945 해방 (2005) [FLAC]\01 - 음주 Rapping (취중푸념) feat. YDG.wav

     Pre-gap length  0:00:02.00

     Peak level 99.9 %
     Extraction speed 2.6 X
     Track quality 100.0 %
     Test CRC 6FCF7A38
     Copy CRC 6FCF7A38
     Accurately ripped (confidence 1)  [295A2BB8]  (AR v1)
     Copy OK

Track  2

     Filename C:\EACRips\Drunken Tiger - 1945 해방 (2005) [FLAC]\02 - Body, Body (깨달음의 작은 비밀) feat.Chorus T.wav

     Peak level 99.9 %
     Extraction speed 2.9 X
     Track quality 100.0 %
     Test CRC C177914D
     Copy CRC C177914D
     Accurately ripped (confidence 1)  [38868B8C]  (AR v1)
     Copy OK

Track  3

     Filename C:\EACRips\Drunken Tiger - 1945 해방 (2005) [FLAC]\03 - 죽지 않는 영혼 (Found you) feat. T.wav

     Peak level 99.9 %
     Extraction speed 3.3 X
     Track quality 100.0 %
     Test CRC 3264DF3A
     Copy CRC 3264DF3A
     Accurately ripped (confidence 1)  [95E51268]  (AR v1)
     Copy OK

Track  4

     Filename C:\EACRips\Drunken Tiger - 1945 해방 (2005) [FLAC]\04 - 소외된 모두, 왼발을 한보 앞으로! feat. T, Dynamic Duo.wav

     Peak level 99.9 %
     Extraction speed 3.3 X
     Track quality 100.0 %
     Test CRC 95E52F4C
     Copy CRC 95E52F4C
     Accurately ripped (confidence 1)  [2AA50944]  (AR v1)
     Copy OK

Track  5

     Filename C:\EACRips\Drunken Tiger - 1945 해방 (2005) [FLAC]\05 - 우주 (I Got You) feat. YDG.wav

     Peak level 99.9 %
     Extraction speed 3.6 X
     Track quality 100.0 %
     Test CRC 430061D4
     Copy CRC 430061D4
     Accurately ripped (confidence 1)  [F1DFD560]  (AR v1)
     Copy OK

Track  6

     Filename C:\EACRips\Drunken Tiger - 1945 해방 (2005) [FLAC]\06 - 진정한 美는 마음 안에.wav

     Peak level 94.4 %
     Extraction speed 2.7 X
     Track quality 99.9 %
     Test CRC 5F19B3FB
     Copy CRC 5F19B3FB
     Accurately ripped (confidence 1)  [1553B137]  (AR v1)
     Copy OK

Track  7

     Filename C:\EACRips\Drunken Tiger - 1945 해방 (2005) [FLAC]\07 - 관객모독 (꿈) - YDG skit.wav

     Peak level 92.7 %
     Extraction speed 1.3 X
     Track quality 99.8 %
     Test CRC 49B186A6
     Copy CRC 49B186A6
     Accurately ripped (confidence 1)  [84725954]  (AR v1)
     Copy OK

Track  8

     Filename C:\EACRips\Drunken Tiger - 1945 해방 (2005) [FLAC]\08 - 60 Percenta Zen.wav

     Peak level 99.9 %
     Extraction speed 3.8 X
     Track quality 100.0 %
     Test CRC D8DD1D0D
     Copy CRC D8DD1D0D
     Accurately ripped (confidence 1)  [073070DF]  (AR v1)
     Copy OK

Track  9

     Filename C:\EACRips\Drunken Tiger - 1945 해방 (2005) [FLAC]\09 - 심의에 안 걸리는 사랑 노래 feat. T.wav

     Peak level 99.9 %
     Extraction speed 3.0 X
     Track quality 99.9 %
     Test CRC F1B00C81
     Copy CRC F1B00C81
     Accurately ripped (confidence 1)  [DC72D68D]  (AR v1)
     Copy OK

Track 10

     Filename C:\EACRips\Drunken Tiger - 1945 해방 (2005) [FLAC]\10 - 핸즈인디 A여! (Liquor shots II) feat. Bizzy.wav

     Peak level 99.9 %
     Extraction speed 4.2 X
     Track quality 100.0 %
     Test CRC 6D1D47EB
     Copy CRC 6D1D47EB
     Accurately ripped (confidence 1)  [A8F3E2FE]  (AR v1)
     Copy OK

Track 11

     Filename C:\EACRips\Drunken Tiger - 1945 해방 (2005) [FLAC]\11 - 관객모독 (현실) - YDG skit.wav

     Peak level 96.6 %
     Extraction speed 3.6 X
     Track quality 100.0 %
     Test CRC 10DFF788
     Copy CRC 10DFF788
     Accurately ripped (confidence 1)  [C842E013]  (AR v1)
     Copy OK

Track 12

     Filename C:\EACRips\Drunken Tiger - 1945 해방 (2005) [FLAC]\12 - 손들어! (Here!) feat. YDG, Bizzy.wav

     Peak level 100.0 %
     Extraction speed 3.5 X
     Track quality 99.9 %
     Test CRC 51915407
     Copy CRC 51915407
     Accurately ripped (confidence 1)  [F35F50E8]  (AR v1)
     Copy OK

Track 13

     Filename C:\EACRips\Drunken Tiger - 1945 해방 (2005) [FLAC]\13 - 오! 1945 (타임머신).wav

     Pre-gap length  0:00:01.52

     Peak level 99.9 %
     Extraction speed 4.2 X
     Track quality 99.9 %
     Test CRC E3347D73
     Copy CRC E3347D73
     Accurately ripped (confidence 1)  [DB371464]  (AR v1)
     Copy OK

All tracks accurately ripped

No errors occurred

End of status report

---- CUETools DB Plugin V2.1.3

[CTDB TOCID: 3BWC0UfFuCpW3Y_OUITcKzSSRs4-] found, Submit result: 3BWC0UfFuCpW3Y_OUITcKzSSRs4- has been confirmed
[6605175d] (2/2) Accurately ripped

==== Log checksum AEAE8AF0AFFCC27E2A0DFA0F894325B6741F0963570C96552F90577A95DB1048 ====

http://i80.fastpic.ru/big/2016/0614/3d/2f54b5e839e042a580db996f98c45e3d.png

2

Body, Body - трек мне нравится, могу слушать много раз подряд.

"It's My Time" HQ 윤미래 SUNZOO Sun Zoo MV feat. Drunken Tiger, Tasha & Roscoe Umali - клип с youtube в альбоме трека нет, нашёл только что, неплохой хит.

3

Спасибо, Серёга. Заценим... http://savepic.net/454733.gif

4

It's My Time - клёвый трек, девочка классно отжигает/читает!

SUNZOO Sun Zoo MV feat. Drunken Tiger, Tasha & Roscoe Umali - It's My Time (256 kbps)

Еще мне нравится у Drunken Tiger трек 8:45 Heaven + клип у него прикольный

5

8:45 Heaven - мне тоже трек понравился.


Вы здесь » Rapsody-Music » Международный Еврорэп » Drunken Tiger - 1945 해방 (2005)


Создать форум © iboard.ws