Rapsody-Music

Объявление

Информация о пользователе

Привет, Гость! Войдите или зарегистрируйтесь.


Вы здесь » Rapsody-Music » Black Attack » Black Attack - On The Edge (Album) [1997]


Black Attack - On The Edge (Album) [1997]

Сообщений 1 страница 17 из 17

Опрос

Какой трек лучше ?
01. On The Edge

10% - 2
02. Bang Bang

10% - 2
05. Heartless

50% - 10
11. It's A Shame

30% - 6
Голосов: 20

1

Ну тогда приступим к выкладыванию не раритетных альбомов! Лучших альбомов! Их даже особенно приятно выкладывать.

Black Attack / On The Edge

Стиль: Euro-rap
Страна: Germany
Формат: FLAC (tracks+.cue)
Битрейт аудио: lossless
Источник (релизер): what.cd (Guthan7)
Пароль: Есть

Треклист:

01. On The Edge (05:32)
02. Bang Bang (04:00)
03. Dirty Money (03:48)
04. Black Attack (01:29)
05. Heartless (03:58)
06. U Make Me Feel So Good (03:47)
07. Blowin' It Up (04:11)
08. Threat (02:44)
09. Fake Playa (03:59)
10. Down a*s Girl (03:43)
11. It's A Shame (04:07)
12. Now I See Clearly (04:48)

Лог создания рипа

Exact Audio Copy V1.0 beta 2 from 29. April 2011

EAC extraction logfile from 23. July 2011, 4:40

Black Attack / On The Edge

Used drive  : ASUS    DRW-2014S1T   Adapter: 7  ID: 0

Read mode               : Secure
Utilize accurate stream : Yes
Defeat audio cache      : Yes
Make use of C2 pointers : No

Read offset correction                      : 6
Overread into Lead-In and Lead-Out          : No
Fill up missing offset samples with silence : Yes
Delete leading and trailing silent blocks   : No
Null samples used in CRC calculations       : Yes
Used interface                              : Native Win32 interface for Win NT & 2000
Gap handling                                : Appended to previous track

Used output format              : User Defined Encoder
Selected bitrate                : 768 kBit/s
Quality                         : High
Add ID3 tag                     : No
Command line compressor         : C:\Program Files (x86)\Exact Audio Copy\Flac\flac.exe
Additional command line options : -8 -V -T "ARTIST=%artist%" -T "TITLE=%title%" -T "ALBUM=%albumtitle%" -T "DATE=%year%" -T "TRACKNUMBER=%tracknr%" -T "GENRE=%genre%" -T "COMMENT=%comment%" -T "BAND=%albuminterpret%" -T "COMPOSER=%composer%" %haslyrics%--ta

TOC of the extracted CD

     Track |   Start  |  Length  | Start sector | End sector
    ---------------------------------------------------------
        1  |  0:00.00 |  5:32.60 |         0    |    24959   
        2  |  5:32.60 |  4:00.03 |     24960    |    42962   
        3  |  9:32.63 |  3:48.36 |     42963    |    60098   
        4  | 13:21.24 |  1:29.65 |     60099    |    66838   
        5  | 14:51.14 |  3:58.38 |     66839    |    84726   
        6  | 18:49.52 |  3:47.02 |     84727    |   101753   
        7  | 22:36.54 |  4:11.49 |    101754    |   120627   
        8  | 26:48.28 |  2:44.04 |    120628    |   132931   
        9  | 29:32.32 |  3:59.56 |    132932    |   150912   
       10  | 33:32.13 |  3:43.61 |    150913    |   167698   
       11  | 37:15.74 |  4:07.50 |    167699    |   186273   
       12  | 41:23.49 |  4:48.00 |    186274    |   207873   

Track  1

     Filename C:\Users\Spartak\Music\Upload Torrents\Black Attack - On the edge\Black Attack - On The Edge - 01. On The Edge.wav

     Pre-gap length  0:00:02.00

     Peak level 99.7 %
     Extraction speed 5.8 X
     Track quality 100.0 %
     Test CRC 2BC4D764
     Copy CRC 2BC4D764
     Copy OK

Track  2

     Filename C:\Users\Spartak\Music\Upload Torrents\Black Attack - On the edge\Black Attack - On The Edge - 02. Bang Bang.wav

     Pre-gap length  0:00:01.73

     Peak level 99.7 %
     Extraction speed 4.7 X
     Track quality 99.9 %
     Test CRC 98B162D8
     Copy CRC 98B162D8
     Copy OK

Track  3

     Filename C:\Users\Spartak\Music\Upload Torrents\Black Attack - On the edge\Black Attack - On The Edge - 03. Dirty Money.wav

     Pre-gap length  0:00:01.73

     Peak level 100.0 %
     Extraction speed 5.6 X
     Track quality 100.0 %
     Test CRC 41E57A6E
     Copy CRC 41E57A6E
     Copy OK

Track  4

     Filename C:\Users\Spartak\Music\Upload Torrents\Black Attack - On the edge\Black Attack - On The Edge - 04. Black Attack.wav

     Pre-gap length  0:00:01.73

     Peak level 99.7 %
     Extraction speed 4.8 X
     Track quality 100.0 %
     Test CRC 8D761490
     Copy CRC 8D761490
     Copy OK

Track  5

     Filename C:\Users\Spartak\Music\Upload Torrents\Black Attack - On the edge\Black Attack - On The Edge - 05. Heartless.wav

     Pre-gap length  0:00:01.73

     Peak level 100.0 %
     Extraction speed 6.1 X
     Track quality 100.0 %
     Test CRC 99F3AD47
     Copy CRC 99F3AD47
     Copy OK

Track  6

     Filename C:\Users\Spartak\Music\Upload Torrents\Black Attack - On the edge\Black Attack - On The Edge - 06. U Make Me Feel So Good.wav

     Pre-gap length  0:00:01.73

     Peak level 100.0 %
     Extraction speed 6.4 X
     Track quality 100.0 %
     Test CRC A1713E73
     Copy CRC A1713E73
     Copy OK

Track  7

     Filename C:\Users\Spartak\Music\Upload Torrents\Black Attack - On the edge\Black Attack - On The Edge - 07. Blowin' It Up.wav

     Pre-gap length  0:00:01.74

     Peak level 100.0 %
     Extraction speed 6.0 X
     Track quality 99.9 %
     Test CRC 671763C5
     Copy CRC 671763C5
     Copy OK

Track  8

     Filename C:\Users\Spartak\Music\Upload Torrents\Black Attack - On the edge\Black Attack - On The Edge - 08. Threat.wav

     Pre-gap length  0:00:01.74

     Peak level 99.4 %
     Extraction speed 6.6 X
     Track quality 100.0 %
     Test CRC A3E0828E
     Copy CRC A3E0828E
     Copy OK

Track  9

     Filename C:\Users\Spartak\Music\Upload Torrents\Black Attack - On the edge\Black Attack - On The Edge - 09. Fake Playa.wav

     Pre-gap length  0:00:01.74

     Peak level 99.7 %
     Extraction speed 7.2 X
     Track quality 100.0 %
     Test CRC 6A44E5BC
     Copy CRC 6A44E5BC
     Copy OK

Track 10

     Filename C:\Users\Spartak\Music\Upload Torrents\Black Attack - On the edge\Black Attack - On The Edge - 10. Down a*s Girl.wav

     Pre-gap length  0:00:01.74

     Peak level 100.0 %
     Extraction speed 7.4 X
     Track quality 100.0 %
     Test CRC 9ED78C8A
     Copy CRC 9ED78C8A
     Copy OK

Track 11

     Filename C:\Users\Spartak\Music\Upload Torrents\Black Attack - On the edge\Black Attack - On The Edge - 11. It's A Shame.wav

     Pre-gap length  0:00:01.74

     Peak level 99.9 %
     Extraction speed 6.9 X
     Track quality 99.9 %
     Test CRC 87B9E50E
     Copy CRC 87B9E50E
     Copy OK

Track 12

     Filename C:\Users\Spartak\Music\Upload Torrents\Black Attack - On the edge\Black Attack - On The Edge - 12. Now I See Clearly.wav

     Pre-gap length  0:00:01.74

     Peak level 98.3 %
     Extraction speed 8.3 X
     Track quality 100.0 %
     Test CRC 0BDCE353
     Copy CRC 0BDCE353
     Copy OK

No errors occurred

End of status report

==== Log checksum 03AC8C7AC5CA1D2EEE96B8FCD56A9D7E2FF6C4C5E70EDF99C0C50545F411684D ====

http://i72.fastpic.ru/big/2016/0617/f4/727d522b85dd1219284e09072d7956f4.png

Скрытый текст:

Для просмотра скрытого текста - войдите или зарегистрируйтесь.

Установлен пароль, так как FLAC (tracks+.cue) c What.cd

2

Мой любимый хит из этого альбома - It's A Shame

На счёт страны, искал биографии, и повсюду о стране ни слова, как будто так и нужно, иногда указано - Производитель диска - USA, так с какой страны эта группа? я думал Германия.

3

Я тоже выбрал It's A Shame несмотря на то что долго балдел от  Heartless и Bang Bang и считал их обалденными треками(и считаю :) ).....даже клип It's A Shame как-то больше цепляет нежели чем к примеру Bang Bang....Отличная группа сильные темы мощные треки и всё остальное делает Black Attack одними из самых ярких и громких представителей Вселенной Rapsody :cool:

4

Мой голос за Heartless, т.к. выбирать пришлось только один, а мне нравятся все))) Heartless услышал первым из творчества Black Attack, он выходил на танцевальном сборнике 1-ым на стороне А. Следом за ним шёл трек LaCross - Save Me, а остальные просто танцевальные песни, не рэп, уже не помню их.

Под Threat читал самодельный рэп со сцены в школе... ностальгия! Жалко, что кассета со своими записями была только в единственном экземпляре, у кого-то осела и потерялась. Послушать бы сейчас свой детский голосок под минусовку Black Attack!

Отредактировано PEA (12.01.2013 15:37)

5

Проголосовал за "It's a shame", так как остальные темки мне уже малость поднадоели, хотя, безусловно, они шикарные.
А история с приобретением данного альбома у меня следующая. Ещё в 2000 году (это я точно помню) одноклассница "загнала" мне кассетку "Gangsta's planet RAPSODY", а я ей отдал недавно преобретённый альбом Black attack, так как мне он не нравился вовсе. Так... только "Heartless" и "Bang bang", но эти песни были практически на всех сборниках рэпа. Ещё запомнилась "Threat", так как под эту музыку зачитали сибиряки "56 размер". Я как-то выкладывал эту песенку. Осткальные треки, повторюсь, меня не впечатляли. Но вот прошло время. Я занастольгировал... Но, в общем, это уже не важно... Мой выбор - "It's a shame". Может и вы расскажите свою историю?

6

Моя история по поводу этого альбома, в 1997 году пошёл как всегда покупать диски, и на угад купил каких то негров, как раз совпало что только их альбом вышел, первый трек который услышал естественно - 01. On The Edge  так как первый на диске, сразу же понравился их стиль, и как только услышал It's a shame, сразу понял с первых секунд что это ещё один мой любимый трек.

7

А у меня первый CD-плеер появился только в 2001, до этого времени довольствовался кассетами.
У друзей были музыкальные центры, конечно, но мои родители не могли себе этого позволить, дороговато было, денег лишних не было...
Этот альбом у нас не продавался, не видел его в магазинах. Детство мое прошло в провинциальном поселке. Приезжал из Архангельска знакомый моего друга, у него я и переписывал этот альбом. Дело было в 1999 году.

Отредактировано PEA (12.01.2013 18:35)

8

Голос за "It's a shame" Отличный трек! остальные тоже хороши, но они более америкосовские что ли, нет той мелодичности в припевах.

9

It's A Shame - самая классная песня!!

10

Мне тоже больше всего нравится - It's A Shame.

11

Heartless- что бы не делал, заставляет бросить все и дослушать ее до конца))

12

Мой лучший - однозначно "Heartless". Это не только их самый популярный, но и самый завершенный трек. Ведь именно он и является из всех представленных ярчайшим представителем RAPSODY (рэпа с классикой) - в данном случае использованы сымплы из Ennio Morricone - Chi Mai. И, естественно, именно с этого шедевра началось мое знакомство с данной командой.

13

http://forumstatic.ru/files/0012/46/05/98123.jpg  Добавил ссылку релиза с iTunes.

14

Будьте добры, перезалейте пожалуйста

15

eobard
Вторая ссылка рабочая https://yadi.sk/d/ZBs8JldAvByEs

16

Отдаю голос за 2 пули в голове.
Рэп Обработка композиции Francis Lai - Scene d amour на высоте.
И еще Threat как минусовка к Bang Bang понравилась.

17

bang bang


Вы здесь » Rapsody-Music » Black Attack » Black Attack - On The Edge (Album) [1997]